Knell
Project B-

BASIC

Level: 4
BPM: 205
Notes: 304

1
口口口口 |----|
口口口口 |----|
口口口口 |----|
口口口口
2
口口口口 |----|
口口口口 |----|
口口口口 |----|
口口口口
3
①口口口 |①---|
口口口口 |----|
口口口口 |----|
口口口口
4
口口口① |①---|
口口口口 |----|
口口口口 |----|
口口口口
5
口口口口 |①---|
口①①口 |--②-|
口②②口 |----|
口口口口
6
口口口口 |----|
口口口口 |----|
口口口口 |----|
口口口口
7
口口口口 |----|
口口口口 |----|
口口口口 |----|
口口口口
8
口口口口 |----|
口口口口 |----|
口口口口 |----|
口口口口
9
口口口口 |①---|
口①①口 |--②-|
口②②口 |----|
口口口口
10
口口口口 |----|
口口口口 |----|
口口口口 |----|
口口口口
11
口口口口 |----|
口口口口 |----|
口口口口 |----|
口口口口
12
口口口口 |----|
口口口口 |----|
口口口口 |----|
口口口口
13
口口口口 |①---|
口①口口 |----|
口口口口 |----|
口口口口
14
口口口口 |①---|
口口①口 |----|
口口口口 |----|
口口口口
15
口口口口 |①---|
口口口口 |----|
口①口口 |----|
口口口口
16
口口口口 |①---|
口口口口 |----|
口口①口 |----|
口口口口
17
口口口口 |①---|
口口口口 |--②-|
①②口口 |----|
口口口口
18
口口口口 |①---|
口口口② |--②-|
口口①② |----|
口口口口
19
口口口口 |①---|
①②口口 |--②-|
口口口口 |----|
口口口口
20
口口口口 |①---|
口口①② |--②-|
口口口② |----|
口口口口
21
口口口口 |①---|
口口口口 |--②-|
①②口口 |----|
口口口口
22
口口口口 |①---|
口口口② |--②-|
口口①② |----|
口口口口
23
口口口口 |①---|
①②口口 |--②-|
口口口口 |----|
口口口口
24
口口口口 |①---|
口口①② |--②-|
口口口② |----|
口口口口
25
①①②② |①---|
口口口口 |--②-|
口口口口 |----|
口口口口
26
口口口口 |----|
口口口口 |①---|
口①口口 |----|
口口口口
27
口口口口 |①---|
①①②② |--②-|
口口口口 |----|
口口口口
28
口口口口 |----|
口口口口 |①---|
口口口口 |----|
口①口口
29
口口口口 |①---|
口口口口 |--②-|
①①②② |----|
口口口口
30
口口口口 |----|
口①①口 |①---|
口口口口 |----|
口口口口
31
①口口① |①---|
②口口② |--②-|
口口口口 |----|
口口口口
32
口口口口 |①---|
口口口口 |--②-|
①口口① |----|
②口口②
33
口口口口 |①---|
口口①口 |----|
口①口口 |----|
口口口口
34
口口口口 |①---|
口①口口 |----|
口口①口 |----|
口口口口
35
口口口口 |①---|
口口口① |----|
①口口口 |----|
口口口口
36
口口口口 |①---|
①口口口 |----|
口口口① |----|
口口口口
37
①①②② |①---|
口口口口 |--②-|
口口口口 |----|
口口口口
38
口口口口 |----|
口口口口 |①---|
口①口口 |----|
口口口口
39
口口口口 |①---|
①①②② |--②-|
口口口口 |----|
口口口口
40
口口口口 |----|
口口口口 |①---|
口口口口 |----|
口①口口
41
口口口口 |①---|
口口口口 |--②-|
①①②② |----|
口口口口
42
口口口口 |----|
口①①口 |①---|
口口口口 |----|
口口口口
43
①口口① |①---|
②口口② |--②-|
口口口口 |----|
口口口口
44
口口口口 |①---|
口口口口 |--②-|
①口口① |----|
②口口②
45
口口口口 |①---|
口口口口 |--②-|
口②②口 |----|
口①①口
46
口口口口 |①---|
口①①口 |----|
口口口口
口口口口
47
①口口① |①---|
②口口② |--②-|
口口口口 |----|
口口口口
48
口口口口 |①---|
口口口口 |----|
①口口①
口口口口
49
口口口口 |①---|
口口口口 |----|
口口口口 |----|
口①①口
50
口口口口 |①---|
口口口口 |----|
口①①口 |----|
口口口口
51
口口口口 |①---|
口①①口 |----|
口口口口 |----|
口口口口
52
①②③口 |①---|
口口口口 |②---|
口口口口 |③---|
口口口口
53
口口口口 |①---|
口①②口 |--②-|
口①②口 |----|
口口口口
54
口口口口 |----|
口口口口 |----|
口口口口 |----|
口口口口
55
口口口口 |①---|
口口口口 |--②-|
口口口口 |----|
①②口口
56
口口口口 |①---|
口口口口 |--②-|
口口口口 |----|
口口①②
57
口口口口 |①---|
口①②口 |--②-|
口①②口 |----|
口口口口
58
口口口口 |----|
口口口口 |----|
口口口口 |----|
口口口口
59
口口口口 |①---|
口口口口 |--②-|
口口口口 |----|
口①②口
60
口口口口 |①---|
③口口③ |②---|
②口口② |③---|
①口口①
61
口口口口 |①---|
口①②口 |--②-|
口①②口 |----|
口口口口
62
口口口口 |----|
口口口口 |----|
口口口口 |----|
口口口口
63
口口口口 |①---|
口口口口 |--②-|
口口口口 |----|
①②口口
64
口口口口 |①---|
口口口口 |--②-|
口口口口 |----|
口口①②
65
口口口口 |①---|
口①②口 |--②-|
口①②口 |----|
口口口口
66
口口口口 |----|
口口口口 |----|
口口口口 |----|
口口口口
67
①口①口 |①---|
口②口② |--②-|
口口口口 |----|
口口口口
68
口口口口 |①---|
口口口口 |--②-|
①口①口 |----|
口②口②
69
口口口口 |①---|
口口口口 |--②-|
口②口② |----|
①口①口
70
口②口② |①---|
①口①口 |--②-|
口口口口 |----|
口口口口
71
口口①口 |①---|
口口口① |----|
口口口口 |----|
口口口口
72
口①口口 |①---|
①口口口 |----|
口口口口 |----|
口口口口
73
口口①口 |①---|
口口口① |----|
口口口口 |----|
口口口口
74
口①口口 |①---|
①口口口 |----|
口口口口 |----|
口口口口
75
口口口口 |①---|
口口口口 |----|
口①①口 |----|
口口口口
76
口口口③ |①---|
口口口② |②---|
口口口① |③---|
口口口口
77
口口口口 |①---|
口①①口 |----|
口口口口 |----|
口口口口
78
口口口口 |①---|
①口口口 |②---|
②口口口 |③---|
③口口口
79
口口口口 |①---|
口口口口 |----|
口口口口 |----|
口①①口
80
口口口③ |①---|
口口口② |②---|
口口口① |③---|
口口口口
81
口①①口 |①---|
口口口口 |----|
口口口口 |----|
口口口口
82
口口口口 |①---|
①口口口 |②---|
②口口口 |③---|
③口口口
83
口口口口 |①---|
口②口口 |----|
口①①口 |②---|
口口口口
84
口口口③ |①---|
口口口② |②---|
口口口① |③---|
口口口口
85
口口口口 |①---|
口①①口 |----|
口口②口 |②---|
口口口口
86
口口口口 |①---|
①口口口 |②---|
②口口口 |③---|
③口口口
87
口口口① |①---|
口口口② |②---|
口口口③ |③---|
口口口口
88
口口口口 |①---|
口口口口 |②---|
③②①口 |③---|
口口口口
89
口口口口 |①---|
①②③口 |②---|
口口口口 |③---|
口口口口
90
口口口口 |①---|
口口口口 |----|
口①①口 |----|
口口口口
91
口口口口 |①---|
口③口口 |②---|
口口②口 |③---|
口①①口
92
口口口口 |①---|
口口③① |②---|
口②口① |③---|
口口口口
93
口口口口 |①---|
①③口口 |②---|
①口②口 |③---|
口口口口
94
口①①口 |①---|
口口②口 |②---|
口③口口 |③---|
口口口口
95
口口口口 |①---|
口②口① |②---|
口口③① |③---|
口口口口
96
口口口口 |①---|
①口②口 |②---|
①③口口 |③---|
口口口口
97
口口口口 |①---|
口口口③ |②---|
口口口② |③---|
口①①口
98
口①①口 |①---|
②口口口 |②---|
③口口口 |③---|
口口口口
99
口口口口 |①---|
口③口口 |②---|
口口②口 |③---|
口①①口
100
口口口口 |①---|
口口③① |②---|
口②口① |③---|
口口口口
101
口口口口 |①---|
①③口口 |②---|
①口②口 |③---|
口口口口
102
口①①口 |①---|
口口②口 |②---|
口③口口 |③---|
口口口口
103
口口口口 |①---|
口口口③ |②---|
口口口② |③---|
口①①口
104
口①①口 |①---|
②口口口 |②---|
③口口口 |③---|
口口口口
105
口口口口 |①---|
口口口③ |②---|
口口口② |③---|
口①①口
106
口口①① |①---|
②②口口 |②---|
口口③③ |③---|
口口口口
107
口口口口 |①---|
口口口口 |----|
口口口口 |----|
①①口口
108
口口口口 |①---|
口口口口 |----|
口①①口 |----|
口口口口
109
口口口口 |①---|
口口口口 |--②-|
①②口口 |----|
口口口口
110
口口口口 |①---|
口口口② |--②-|
口口①② |----|
口口口口
111
口口口口 |①---|
①②口口 |--②-|
口口口口 |----|
口口口口
112
口口口口 |①---|
口口①② |--②-|
口口口② |----|
口口口口
113
口口口口 |①---|
口口口口 |--②-|
①②口口 |----|
口口口口
114
口口口口 |①---|
口口口② |--②-|
口口①② |----|
口口口口
115
口口口口 |①---|
①②口口 |--②-|
口口口口 |----|
口口口口
116
口口口口 |①---|
口口①② |--②-|
口口口② |----|
口口口口
117
口①①口 |①---|
口②②口 |--②-|
口口口口 |----|
口口口口

不確定度: 0

最終更新:2016年12月20日 03:25