Knell
Project B-

ADVANCED

Level: 7
BPM: 205
Notes: 523

1
口口口口 |----|
口口口口 |----|
口口口口 |----|
口口口口
2
口口口口 |----|
口口口口 |----|
口口口口 |----|
口口口口
3
口口口口 |①---|
口口口口 |----|
口口口口 |----|
口①口口
4
口口口口 |①---|
口口口口 |--②-|
口②①口 |----|
口口口口
5
②②①① |①---|
口口口口 |--②-|
口口口口 |----|
口口口口
6
口口口口 |----|
口口口口 |----|
口口口口 |----|
口口口口
7
口口口口 |----|
口①口口 |----|
口口口口 |①---|
口口口口
8
口口口口 |----|
口口口口 |①---|
口①口口 |----|
口口口口
9
②②①① |①---|
口口口口 |--②-|
口口口口 |----|
口口口口
10
口口口口 |①---|
口口①口 |----|
口口口口 |----|
口口口口
11
口口口口 |①---|
口①口口 |----|
口口口口 |----|
口口口口
12
口口口口 |----|
口口口口 |--①-|
口口①口 |----|
口口口口
13
口①①口 |①---|
口口口口 |----|
口口口口 |----|
口口口口
14
①口口① |①---|
口口口口 |----|
口口口口 |----|
口口口口
15
口口口口 |①---|
口①①口 |----|
口口口口 |----|
口口口口
16
口口口口 |①---|
①口口① |----|
口口口口 |----|
口口口口
17
口口口口 |①---|
口口口口 |--②-|
口口口口 |----|
①②口口
18
口口口口 |①---|
口口口④ |--②-|
口口口③ |③-④-|
口口①②
19
口口②① |①---|
口口口口 |--②-|
口口口口 |----|
口口口口
20
②①口口 |①---|
③口口口 |--②-|
④口口口 |③-④-|
口口口口
21
口口口口 |①---|
口口口口 |--②-|
口口口口 |----|
①②口口
22
口口口口 |①---|
口口口④ |--②-|
口口口③ |③-④-|
口口①②
23
口口②① |①---|
口口口口 |--②-|
口口口口 |----|
口口口口
24
②①口口 |①---|
口口口口 |--②-|
口口口口 |----|
口口口口
25
口口口口 |①---|
口①①口 |--②-|
口②②口 |--③-|
口口口③
26
③口口④ |①-②-|
⑤口口② |③-④-|
①口口⑥ |⑤-⑥-|
口口口口
27
口口口口 |①---|
口口口③ |--②-|
口②②口 |--③-|
口①①口
28
口③②① |①---|
口②③口 |②---|
口口口口 |③---|
口口口口
29
③口口口 |①---|
口口口口 |--②-|
口①①口 |--③-|
口②②口
30
口口口口 |①-②-|
口口口① |③-④-|
②口口⑤ |⑤---|
④口口③
31
口①②口 |①---|
①口口② |--②-|
口口口口 |----|
口口口口
32
口口口口 |①---|
口口口口 |--②-|
①口口② |----|
口①②口
33
⑤⑥口口 |①-②-|
①②③④ |③-④-|
口口口口 |⑤-⑥-|
口口口口
34
口口口口 |①-②-|
口口口口 |③-④-|
口口⑥⑤ |⑤-⑥-|
④③②①
35
①口口口 |①-②-|
口口口② |③-④-|
③口口口 |⑤-⑥-|
口⑤⑥④
36
口口口口 |①-②-|
口①②口 |③-④-|
口③④口 |⑤-⑥-|
⑤口口⑥
37
口①①口 |①---|
口口口③ |--②-|
口口口口 |--③-|
口②②口
38
口口口口 |①-②-|
③口⑥口 |③-④-|
①⑤④② |⑤-⑥-|
口口口口
39
口②②口 |①---|
口口口口 |--②-|
口口口③ |--③-|
口①①口
40
口口口口 |①---|
口③②① |②---|
口②③口 |③---|
口口口口
41
①③口① |①---|
②口口② |--②-|
口口口口 |--③-|
口口口口
42
口口口口 |①-②-|
口口①口 |③-④-|
口②⑤口 |⑤---|
口④③口
43
①口口② |①---|
口①②口 |--②-|
口口口口 |----|
口口口口
44
口口口口 |①---|
口口口口 |--②-|
口①②口 |----|
①口口②
45
口②①口 |①---|
①口口② |--②-|
口口口口 |----|
口口口口
46
①口口① |①---|
口口口口 |----|
口①①口
口口口口
47
口口口口 |①---|
口口口口 |--②-|
①口口② |----|
口②①口
48
口口口口 |①---|
口①①口 |----|
口口口口
①口口①
49
①口口口 |①-②-|
口口⑥② |③-④-|
③口⑤口 |⑤-⑥-|
口口④口
50
口口口① |①-②-|
②⑥口口 |③-④-|
口⑤口③ |⑤-⑥-|
口④口口
51
①口口口 |①-②-|
口口⑥② |③-④-|
③口⑤口 |⑤-⑥-|
口口④口
52
口①口口 |①---|
①口口口 |②---|
口口口② |③---|
③③口②
53
口⑥⑤口 |①-②-|
口④③口 |③-④-|
口②①口 |⑤-⑥-|
口口口口
54
⑥口口⑤ |①-②-|
④口口③ |③-④-|
②口口① |⑤-⑥-|
口口口口
55
口口口口 |①-②-|
口口口口 |③-④-|
口⑥⑤④ |⑤-⑥-|
口③②①
56
④⑤⑥口 |①-②-|
口③②① |③-④-|
口口口口 |⑤-⑥-|
口口口口
57
口口口口 |①-②-|
⑤口口⑥ |③-④-|
③口口④ |⑤-⑥-|
①口口②
58
口口口口 |①-②-|
口⑤⑥口 |③-④-|
口③④口 |⑤-⑥-|
口①②口
59
①②③口 |①-②-|
口口口口 |③-④-|
口口口口 |⑤-⑥-|
④⑤⑥口
60
④口⑦① |①-②-③-|
⑤口⑧② |④-⑤-⑥-|
⑥口⑨③ |⑦-⑧-⑨-|
口口口口
61
口口口口 |①-②-|
口口口口 |③-④-|
口⑤口⑥ |⑤-⑥-|
①③④②
62
①③④② |①-②-|
⑤口⑥口 |③-④-|
口口口口 |⑤-⑥-|
口口口口
63
口口口口 |①-②-|
口③口⑥ |③-④-|
口②口⑤ |⑤-⑥-|
口①口④
64
口口口口 |①-②-|
③口④口 |③-④-|
②口⑤口 |⑤-⑥-|
①口⑥口
65
①③④② |①-②-|
口⑤口⑥ |③-④-|
口口口口 |⑤-⑥-|
口口口口
66
口口口口 |①-②-|
口口口口 |③-④-|
口⑤口⑥ |⑤-⑥-|
①③④②
67
口①②口 |①---|
①口口② |--②-|
口口口口 |----|
口口口口
68
口口口口 |①---|
口口口口 |--②-|
①口口② |----|
口①②口
69
口口口口 |①---|
①口口② |--②-|
口①②口 |----|
口口口口
70
口口口口 |①---|
口①②口 |--②-|
①口口② |----|
口口口口
71
口口口口 |①---|
口口③口 |----|
口②口口 |②-③-|
①①①①
72
①①①① |①---|
口②口口 |----|
口口③口 |②-③-|
口口口口
73
口口口口 |①---|
口口③口 |----|
口②口口 |②-③-|
①①①①
74
①①①① |①---|
口口口口 |----|
口口③口 |②-③-|
口②口口
75
口口口② |①---|
③①口口 |②-③-|
口口口④ |④-⑤-|
⑤口口口
76
口口②口 |①---|
口口①③ |②---|
④口口口 |③-④-|
口口口口
77
口口口口 |①---|
口②③口 |②-③-|
口④⑤口 |④-⑤-|
口口口①
78
②③口口 |①---|
①口④口 |②---|
口口口口 |③-④-|
口口口口
79
口口口口 |①---|
口口口口 |②-③-|
⑤①口④ |④-⑤-|
③口口②
80
口口③② |①---|
口④口① |②---|
口口口口 |③-④-|
口口口口
81
口口口口 |①---|
④口口⑤ |②-③-|
口口①口 |④-⑤-|
②口口③
82
口③④口 |①-②-|
口口②口 |③-④-|
口①⑥口 |⑤-⑥-|
口⑤口口
83
口口口② |①---|
③①口口 |②-③-|
口口口④ |④-⑤-|
⑤口口口
84
口②③口 |①-②-|
口口①④ |③---|
⑤口口口 |④-⑤-|
口口口口
85
口口口口 |①---|
口②③口 |②-③-|
口④⑤口 |④-⑤-|
口口口①
86
③④口口 |①-②-|
①口⑤② |③---|
口口口口 |④-⑤-|
口口口口
87
口口口口 |①---|
口口口口 |②-③-|
⑤①口④ |④-⑤-|
③口口②
88
②③④⑤ |①---|
口口口① |②-③-|
口口口口 |④-⑤-|
口口口口
89
口口口口 |①-②-|
口①②口 |③-④-|
⑤口口⑥ |⑤-⑥-|
口③④口
90
口②②口 |①---|
①口口口 |②---|
口口④口 |③-④-|
口③口口
91
口口口② |①---|
③①口口 |②-③-|
口口口④ |④-⑤-|
⑤口口口
92
②②①口 |①---|
口口①③ |②---|
④①口口 |③-④-|
口口②口
93
口口口口 |①---|
口②③口 |②-③-|
口④⑤口 |④-⑤-|
口口口①
94
口③口口 |①---|
①口④① |②---|
口口口② |③-④-|
①②②口
95
口口口口 |①---|
口口口口 |②-③-|
⑤①口④ |④-⑤-|
③口口②
96
口①③① |①---|
②④口① |②---|
口口口口 |③-④-|
口②②口
97
口口口口 |①-②-|
口口口口 |③-④-|
⑥②①⑤ |⑤-⑥-|
④口口③
98
口口③口 |①-②-|
②口口① |③---|
口口⑤口 |④-⑤-|
口④口口
99
口口口② |①---|
③①口口 |②-③-|
口口口④ |④-⑤-|
⑤口口口
100
口③③口 |①-②-|
口口口④ |③---|
⑤②③口 |④-⑤-|
口口①口
101
口口口口 |①---|
口②③口 |②-③-|
口④⑤口 |④-⑤-|
口口口①
102
口口③口 |①-②-|
①④⑤② |③---|
③口口口 |④-⑤-|
口③口口
103
口口口口 |①---|
口口口口 |②-③-|
口①口口 |④-⑤-|
⑤④③②
104
口口口口 |①-②-|
口⑥⑤口 |③-④-|
④③②① |⑤-⑥-|
口口口口
105
④③②① |①-②-|
口口口口 |③-④-|
口⑥⑤口 |⑤-⑥-|
口口口口
106
口口口口 |①---|
①口口① |②---|
②口口② |③---|
③口口③
107
口口口口 |①---|
口①①口 |----|
口口口口 |----|
口口口口
108
口口口口 |①---|
口②②口 |②---|
口①①口 |----|
口口口口
109
口口口口 |①---|
口口口口 |--②-|
口口口口 |----|
①②口口
110
口口口口 |①---|
口口口④ |--②-|
口口口③ |③-④-|
口口①②
111
口口②① |①---|
口口口口 |--②-|
口口口口 |----|
口口口口
112
②①口口 |①---|
③口口口 |--②-|
④口口口 |③-④-|
口口口口
113
口口口口 |①---|
口口口口 |--②-|
口口口口 |----|
①②口口
114
口口口口 |①---|
口口口④ |--②-|
口口口③ |③-④-|
口口①②
115
口口②① |①---|
口口口口 |--②-|
口口口口 |----|
口口口口
116
②①口口 |①---|
口口口口 |--②-|
口口口口 |----|
口口口口
117
口口口口 |①---|
口②②口 |--②-|
口①①口 |----|
口口口口

不確定度: 0

最終更新:2016年12月20日 03:24