琥珀のくちづけ
日向美ビタースイーツ♪&日向美ブルームーン

EXTREME

Level: 8
BPM: 173
Notes: 577

1
口口口口 |----|
口口口口 |----|
口口口口 |----|
口口口口 |----|
2
口③③口 |①-②-|
口口口口 |③---|
①①②② |----|
口口口口 |----|
3
③口②口 |----|
口①口口 |①-②-|
口口口④ |③-④-|
口⑤⑤口 |--⑤-|
4
口口口口 |----|
口口口口 |----|
口口口口 |----|
口口口口 |----|
5
④口口口 |----|
口口口③ |①---|
口口口② |②-③-|
口①口口 |--④-|
6
口口口① |----|
口口②口 |①---|
口③口口 |②---|
口口口口 |③---|
7
口口口④ |----|
③口口口 |①---|
②口口口 |②-③-|
口口①口 |--④-|
8
①口口口 |----|
口②口口 |①---|
口口③口 |②---|
口口口口 |③---|
9
口口③⑥ |①---|
口口④口 |②---|
②口⑤口 |③-④-|
口①口口 |⑤-⑥-|
10
⑤口口⑤ |--①-|
①①③③ |②-③-|
口口口口 |④---|
②②④④ |⑤---|
11
⑤口口口 |①---|
口口口④ |②---|
口①①③ |③-④-|
口②口口 |--⑤-|
12
口口口口 |----|
口口口口 |----|
口口口口 |----|
口口口口 |----|
13
口口口④ |----|
③口口口 |①---|
②口口口 |②-③-|
口口①口 |--④-|
14
①口口口 |----|
口②口口 |①---|
口口③口 |②---|
口口口口 |③---|
15
④口口口 |----|
口口口③ |①---|
口口口② |②-③-|
口①口口 |--④-|
16
口口口① |----|
口口②口 |①---|
口③口口 |②---|
口口口口 |③---|
17
口⑦⑥口 |①-②-|
①⑤⑧口 |③-④-|
口口④② |⑤-⑥-|
口③口口 |⑦-⑧-|
18
②口口① |--①-|
①口口口 |②---|
口口口② |③---|
口③③口 |----|
19
口口③口 |①---|
口口口② |②-③-|
①口口口 |----|
口口口口 |----|
20
①口口口 |----|
口②口③ |①-②-|
⑤口④口 |③-④-|
口⑥口口 |⑤-⑥-|
21
口③口口 |①---|
②口口口 |②-③-|
口口口① |----|
口口口口 |----|
22
口口口口 |①---|
①口口口 |②-③-|
口口口② |----|
口口③口 |----|
23
口口③口 |①---|
口口口② |②-③-|
①口口口
口口口口

口口口口
口口口口
④口口口 |----|
口口口口 |--④-|
24
口⑥⑥② |①---|
③口口口 |②---|
口④口口 |③-④-|
口①⑤口 |⑤-⑥-|
25
口口口口 |----|
①口口口 |----|
口口口② |--①-|
口③口口 |②-③-|
26
①口口① |①---|
口口口口 |--②-|
口②②口 |----|
口口口口 |----|
27
①口口③ |①---|
⑤口④口 |②---|
口②口口 |③-④-|
口口口口 |--⑤-|
28
口口口口 |①-②-|
口①口口 |③-④-|
口②③口 |----|
口口④口 |----|
29
④口口① |①-②-|
口⑤②⑥ |③---|
口③口口 |④-⑤-|
口口口口 |--⑥-|
30
口口口口 |①-②-|
口口①口 |③-④-|
口③②口 |----|
口④口口 |----|
31
④口口口 |①-②-|
口口①⑤ |③-④-|
口②⑥口 |--⑤-|
口⑦③口 |⑥-⑦-|
32
③口口③ |①-②-|
①口①口 |--③-|
④②④② |--④-|
口⑤口⑤ |⑤---|
33
②口口② |①---|
①口口① |----|
口口口口 |②---|
口口口口 |----|
34
口口口口 |①-②-|
②①③④ |③-④-|
⑥⑤⑦⑧ |⑤-⑥-|
口口口口 |⑦-⑧-|
35
口口口口 |①---|
口口口口 |----|
口口口口
口①①口

口口口口
口口口口
口口口口 |----|
②②②② |--②-|
36
口③口口 |----|
口口②口 |①---|
口①口口 |②---|
口口口口 |③---|
37
口口②② |①---|
口③④口 |--②-|
③①①④ |--③-|
口⑤⑤口 |④-⑤-|
38
①①口口 |①---|
口③④② |--②-|
②口口口 |--③-|
口④③口 |④---|
39
①口③① |①---|
口④口③ |--②-|
④口②② |--③-|
口⑤⑤口 |④-⑤-|
40
①口口① |①-②-|
③口口口 |③-④-|
口④口口
②口口口

⑦口口口
口口口⑥
⑤口口口 |⑤-⑥-|
口口⑧口 |⑦-⑧-|
41
口③①① |①---|
口口③④ |②-③-|
口口②口 |----|
④②口口 |④---|
42
④口②④ |①---|
口②口口 |②-③-|
①③口① |----|
口口③口 |④---|
43
口②④④ |①---|
②口④④ |----|
③口口口 |②-③-|
①③口① |--④-|
44
口口④④ |----|
口口口口 |①-②-|
口口口② |③---|
口口③① |④---|
45
④④口口 |①-②-|
②⑧⑥口 |③-④-|
⑦③口⑤ |⑤-⑥-|
①口口口 |⑦-⑧-|
46
口②②② |①---|
口口口口 |②---|
口口口口
口①①口

口口口口
口口③口
④口③口 |③---|
口④口口 |④---|
47
①①③口 |①---|
⑤口口③ |②-③-|
⑦⑥口② |④-⑤-|
④口②口 |⑥-⑦-|
48
口①③① |①---|
④②口口 |②---|
口口②④ |③---|
口③口口 |④---|
49
口口口① |①-②-|
⑦口⑧③ |③-④-|
口口④⑤ |⑤-⑥-|
①口⑥② |⑦-⑧-|
50
②①①② |①---|
口①口① |②---|
①①口口
①①口口

口口口口
③口⑥口
口⑤口④ |③-④-|
口口口口 |⑤-⑥-|
51
③②口口 |①---|
口口④⑤ |②-③-|
口口口口 |--④-|
口①①口 |⑤---|
52
口口口口 |①-②-|
口口口口 |③-④-|
①②④③
口口口口

⑤口口⑧
⑥口⑨口
⑦口口口 |--⑤⑥|
口口口口 |⑦-⑧-⑨-|
53
②口口口 |①---|
③口口口 |--②③|
④①口口 |④-⑤-|
口⑦⑤⑥ |⑥-⑦-|
54
口口⑧⑦ |①-②-|
⑤⑥口口 |③-④-|
口④③② |⑤-⑥-|
①口口口 |⑦-⑧-|
55
①②口口 |①-②-|
⑦⑥③口 |③④⑤-|
⑧⑨④口 |⑥-⑦-|
口口⑤口 |⑧-⑨-|
56
口口口口 |①-②-|
④③⑤⑥ |③-④-|
⑦⑧②① |⑤-⑥-|
口口口口 |⑦-⑧-|
57
②③口④ |①---|
口口⑤口 |----|
口口①口 |--②-|
口口口口 |③-④-⑤-|
58
⑧⑨②口 |①-②-|
③口口口 |③④⑤-|
④①⑦⑥ |⑥-⑦-|
⑤口口口 |⑧-⑨-|
59
口口口口 |①-②-|
口口①② |--③-|
③口口口
口口口口

口口口口
④⑤⑥口
口口口口 |--④-|
口口口口 |⑤-⑥-|
60
口③②① |--①-|
口口口④ |②-③-|
⑦⑧口⑤ |④⑤⑥-|
口口口⑥ |⑦-⑧-|
61
②口口④ |①---|
口③③② |②-③-|
④口①口 |④-⑤-|
口⑤⑤口 |----|
62
①口口③ |①-②-|
口②②① |③-④-|
③口口口 |----|
口④④口 |----|
63
③口口① |----|
①②②口 |①-②-|
口口口③ |③-④-|
口④④口 |----|
64
③口口① |①-②-|
①②②口 |③-④-|
口口口③ |----|
口④④口 |----|
65
④①口口 |----|
口口口口 |①---|
口口③② |②-③-|
口口口口 |--④-|
66
口口口口 |--①-|
口③②① |②-③-|
口口⑥口 |--④-|
⑤④口口 |⑤-⑥-|
67
口口口口 |①---|
口口口口 |----|
口口口① |----|
口口口口 |----|
68
口口口口 |①-②-|
②①③④ |③-④-|
⑥⑤⑦⑧ |⑤-⑥-|
口口口口 |⑦-⑧-|
69
口口口口 |①---|
口口口口 |----|
口口口口
口①①口

口口口口
口口口口
口口口口 |----|
②②②② |--②-|
70
口③口口 |----|
口口②口 |①---|
口①口口 |②---|
口口口口 |③---|
71
口口②② |①---|
口③④② |--②-|
③①①④ |--③-|
口⑤⑤口 |④-⑤-|
72
①①口口 |①---|
①③④② |--②-|
②口口口 |--③-|
口④③口 |④---|
73
①口③① |①---|
口④口③ |--②-|
④口口口 |--③-|
②⑤⑤② |④-⑤-|
74
①口口① |①-②-|
③口口口 |③-④-|
口④口口
②口口口

⑦口口口
口口口⑥
⑤口口口 |⑤-⑥-|
口口⑧口 |⑦-⑧-|
75
口③①① |①---|
口口③④ |②-③-|
口口②口 |----|
④②口口 |④---|
76
④口②④ |①---|
口②口口 |②-③-|
①③口① |----|
口口③口 |④---|
77
口口口口 |①---|
口①①口 |----|
口口①口
口口口口

口②④④
②口④④
③口口口 |②-③-|
口③口口 |--④-|
78
③③④④ |----|
①口口口 |①-②-|
口口②① |③---|
口②口口 |④---|
79
④④口口 |①-②-|
口口③口 |③-④-|
①③口①
口②②口

口口口口
口口口⑥
口口⑦⑧ |⑤-⑥-|
口口口⑤ |⑦-⑧-|
80
②②口③ |①---|
②①①口 |②---|
口口④口 |③---|
③口口④ |④---|
81
①①③口 |①---|
⑤口口③ |②-③-|
⑦⑥口② |④-⑤-|
④口②口 |⑥-⑦-|
82
口①③① |①---|
④②口口 |②---|
口口②④ |③---|
口③口口 |④---|
83
口口口① |①-②-|
⑦口⑧③ |③-④-|
口口④⑤ |⑤-⑥-|
①口⑥② |⑦-⑧-|
84
②①①② |①---|
口①口① |②---|
①①口口
①①口口

口口口口
③口⑥口
口⑤口④ |③-④-|
口口口口 |⑤-⑥-|
85
口口口口 |①---|
口口口口 |----|
口口②② |②---|
口①①口 |----|
86
口口②② |①---|
①①口口 |----|
口口口口 |②---|
口口口口 |----|
87
口口口口 |①---|
口口口口 |----|
①①①① |----|
口口口口 |----|

不確定度: 0

最終更新:2017年08月03日 01:16