そこはかとなくロマンセ
日向美ビタースイーツ♪

EXTREME

Level: 8
BPM: 140
Notes: 503

1
口口口口 |----|
口口口口 |----|
口口口口 |----|
口口口口 |----|
2
口口口口 |①---|
口③③口 |--②-|
②口口① |----|
口②①口 |③---|
3
口③③口 |①---|
②口口① |--②-|
口②①口 |----|
口口口口 |③---|
4
②口口① |①---|
口②①口 |--②-|
口③③口 |----|
口口口口 |③---|
5
口①②口 |①--②|
口③口口 |--③-|
口口③口
口②①口

⑥⑥口④
口口口口
口⑤口口 |④---|
④口口口 |⑤-⑥-|
6
口口口② |----|
口口口口 |①-②-|
口口①口 |----|
口口口口 |----|
7
口口④口 |----|
口③口口 |①---|
②口口口 |②--③|
口①①口 |--④-|
8
⑤①④口 |①--②|
口口②口 |--③-|
口口口③ |--④-|
口④口⑤ |--⑤-|
9
口④口口 |--①-|
口口③口 |----|
口①①② |②--③|
口口口口 |--④-|
10
①口口① |①---|
口④⑥口 |--②③|
口⑤③口 |④---|
口②口口 |--⑤⑥|
11
⑥①④⑥ |①---|
口③口口 |--②③|
口口②口 |④---|
口⑤⑤口 |⑤-⑥-|
12
④②②口 |----|
口口口口 |①-②-|
口口口口 |--③-|
①口③① |-④--|
13
口口①① |①--②|
②②④④ |--③-|
⑤⑤⑥⑥ |④--⑤|
口口③③ |--⑥-|
14
口口口⑤ |①-②-|
①口⑥④ |③-④-|
口⑦口口 |--⑤-|
口②③口 |⑥-⑦-|
15
口口口口 |--①-|
④口口① |②-③-|
口⑤②口 |--④-|
口③⑥口 |⑤-⑥-|
16
口①口② |①--②|
口口③口 |--③-|
口口口口
②口口①

口口口⑦
⑥口口口
口④口口 |④-⑤-|
口口⑤口 |⑥-⑦-|
17
口①口口 |①-②-|
口⑥⑥④ |③-④-|
②⑤⑤口 |--⑤-|
口口③口 |⑥---|
18
④口口口 |①-②-|
③口口口 |③-④-|
②口口口
①口口口

口口⑤口
口⑥口口
⑦口口口 |--⑤-|
口口口口 |⑥-⑦-|
19
口口口口 |--①-|
口④①口 |②-③-|
口②⑤口 |--④-|
③口口⑥ |⑤-⑥-|
20
②③口口 |①---|
口口①① |②-③-|
口口口口
口口口口

⑦口口⑦
口口口口
口口⑤④ |④-⑤-|
口⑥口口 |⑥-⑦-|
21
①口③口 |----|
口②口口 |----|
口口口口 |--①-|
口口口口 |②-③-|
22
口口口① |①---|
口④口口 |----|
③口口口 |--②-|
②口口口 |③-④-|
23
⑤①⑦① |①--②|
②⑥②口 |--③-|
口③③口 |④-⑤-|
口④④口 |⑥-⑦-|
24
口口口① |①---|
口口口口 |----|
口口口口
口口口口

口口口②
口口口③
口口④口 |--②-|
口口口口 |③-④-|
25
口③③口 |①--②|
口④④口 |--③-|
口②口② |④---|
①口①口 |----|
26
①口口② |①-②-|
口口口口 |③-④⑤|
口④⑤口
③口口口

口口口口
⑥口口⑥
口口口口 |--⑥-|
⑦口口口 |--⑦-|
27
②口口① |①-②-|
⑥⑧口⑥ |③-④⑤|
⑦⑤④口 |--⑥-|
口口口③ |--⑦⑧|
28
①口口口 |①---|
口口③口 |--②③|
口口口②
口口口口

⑤口⑥④
口口口口
口口口口 |④--⑤|
口⑥口⑤ |--⑥-|
29
口①口② |①---|
①口口口 |②---|
口口口①
②口①口

口口口⑤
④口口口
口口口口 |③--④|
口③口口 |--⑤-|
30
口④口口 |①-②-|
口口③⑤ |③-④-|
口⑦⑥② |⑤-⑥⑦|
口口①口 |----|
31
口⑦⑦口 |--①-|
⑥③②⑤ |②③④-|
口口④口 |⑤⑥-⑦|
口口①口 |----|
32
口口口口 |--①-|
口③②口 |②③④-|
口口④口
口口口①

口口口⑤
口口口口
口⑥口口 |⑤--⑥|
口口口⑦ |--⑦-|
33
口②口口 |①--②|
口口口② |--③-|
①③③口
口口①口

④口口④
口⑤⑤口
⑥口口⑥ |④-⑤-⑥-|
口⑦⑦口 |⑦---|
34
口口④③ |①-②-|
口口口⑤ |③④⑤-|
口口口口
①口口②

口口口口
⑦⑧口口
口⑥⑥口 |⑥-⑦⑧|
口口⑩⑨ |-⑨⑩-|
35
⑤①①④ |①-②③|
口口口口 |-④⑤-|
②口口③
口口口口

口⑩⑩口
口⑥⑥口
口⑧⑧口 |⑥-⑦⑧|
⑨⑦⑦⑨ |-⑨⑩-|
36
口口口③ |----|
口②口口 |①---|
口口口口 |②---|
口口①口 |③---|
37
①口口口 |①---|
③口口② |--②-|
③口①口 |----|
口②③口 |③---|
38
口①①② |--①-|
口②口口 |----|
口口②① |②---|
②口口口 |----|
39
口口口口 |----|
口口口口 |----|
口口口口 |----|
口口口口 |----|
40
②①①③ |①-②-|
⑤①⑤① |③④-⑤|
①①④口
①①口口

口⑥口口
口口口⑦
⑧口口口 |--⑥-|
口口口口 |⑦-⑧-|
41
②③③② |①-②-|
口②②口 |③-④-|
口①①口
①④④①

口口口口
⑥口口⑤
⑥⑦⑦⑤ |--⑤-|
口口口口 |⑥-⑦-|
42
③口口② |①-②-|
⑤口口⑤ |③④-⑤|
口口口口
口④①①

口口⑥口
口口口口
⑦口口口 |--⑥-|
口口⑧口 |⑦-⑧-|
43
①③③① |①-②-|
口①①口 |③-④⑤|
⑤②②④
②口口②

口口口口
口口⑧口
口⑦口口 |----|
⑥口口口 |⑥⑦⑧-|
44
⑤①⑦③ |①-②-|
⑦③⑤① |③-④-|
口口口口 |⑤-⑥-|
⑧⑥④② |⑦-⑧-|
45
⑤①⑦③ |①-②-|
⑦③⑤① |③-④-|
口口口口 |⑤-⑥-|
⑧⑥④② |⑦-⑧-|
46
口口口③ |①-②-|
④口③口 |③-④-|
②口①口
口口口①

口⑥⑤口
口口口⑦
⑦口口口 |⑤--⑥|
口⑤⑥口 |--⑦-|
47
⑧口口① |①②③④|
⑨②⑤⑪ |-⑤⑥⑦|
⑩⑥③⑫ |⑧-⑨-⑩-|
①④⑦⑬ |⑪-⑫-⑬-|
48
②⑦口③ |①-②-|
⑥口⑥⑧ |③④⑤⑥|
⑨④口口 |--⑦-|
①①⑤口 |⑧-⑨-|
49
②③③② |①-②-|
口②②口 |③-④-|
口①①口
①④④①

口口口口
⑥口口⑤
⑥⑦⑦⑤ |--⑤-|
口口口口 |⑥-⑦-|
50
③口口② |①-②-|
⑥口口⑥ |③④⑤⑥|
口口口④
口⑤①①

口口⑦口
口口口口
⑧口口口 |--⑦-|
口口⑨口 |⑧-⑨-|
51
①③③① |①-②-|
口①①口 |③-④⑤|
⑤②②④
②口口②

口口口口
⑥口⑧口
口口口口 |----|
口⑦口口 |⑥⑦⑧-|
52
⑤口口① |①---|
口④⑧口 |②-③-④-|
⑥⑦③② |⑤---|
⑤口口① |⑥-⑦-⑧-|
53
⑤⑦⑦① |①---|
口④口口 |②-③-④-|
口口③② |⑤---|
⑤⑥⑥① |⑥-⑦-|
54
口口口口 |--①-|
口①口口 |②-③-|
口口②口
口③口口

④口口口
口⑤⑤口
口口口口 |④---|
口口口口 |--⑤-|
55
③⑦⑦② |--①-|
口口口口 |②-③-|
口口⑥口 |④-⑤-|
①⑤口④ |⑥-⑦-|
56
口口口口 |--①-|
③③口口 |②--③|
口⑤口口 |--④-|
①口②④ |-⑤--|
57
①口口② |①---|
口口⑤口 |--②③|
③口口口 |④---|
⑤口④口 |--⑤-|
58
③①口③ |①---|
⑥口口⑥ |②-③-|
口⑤⑤① |--④-|
④②②④ |⑤-⑥-|
59
口口口① |--①-|
口口②口 |--②-|
口③口口 |--③-|
口口口口 |----|

不確定度: 0

最終更新:2017年03月29日 17:17