Endless, Sleepless Night
samfree feat. (V)・∀・(V) かにぱん。

ADVANCED

Level: 7
BPM: 165
Notes: 558

1
口口口口 |----|
口口口口 |----|
口口口口 |----|
口口口口 |----|
2
口口口口 |①---|
口①③口 |②---|
口口口口 |③---|
口②④口 |④---|
3
口口口④ |①---|
③口口口 |②---|
口口口② |③---|
①口口口 |④---|
4
口口口口 |①---|
口①③口 |②---|
口口口口 |③---|
口②④口 |④---|
5
口口口④ |①---|
③口口口 |②---|
口口口② |③---|
①口口口 |④---|
6
口①③口 |①---|
口口口口 |②---|
④②④② |③---|
口口口口 |④---|
7
口口④④ |①---|
③③口口 |②---|
口口口② |③---|
口①口口 |④---|
8
口①③口 |①---|
口口口口 |②---|
④②④② |③---|
口口口口 |④---|
9
④口口④ |①---|
③④④口 |②---|
口口口② |③---|
口①口口 |④---|
10
口口口口 |①-②-|
口口口口 |③-④-|
①③④② |⑤-⑥-|
⑦⑤⑥⑦ |--⑦-|
11
②口口③ |--①-|
③①①② |----|
口口口口 |②-③-|
口口口口 |----|
12
口口口口 |①-②-|
口口口口 |③-④-|
①③④② |⑤-⑥-|
⑦⑤⑥⑦ |--⑦-|
13
②口口③ |--①-|
③①①② |----|
口口口口 |②-③-|
口④④口 |④---|
14
口口口口 |①-②-|
口口口口 |③-④-|
①③④② |⑤-⑥-|
⑦⑤⑥⑦ |--⑦-|
15
②口口③ |--①-|
③①①② |----|
口口口口 |②-③-|
口口口口 |----|
16
口口口口 |①-②-|
口口口口 |③-④-|
①③④② |⑤-⑥-|
⑦⑤⑥⑦ |--⑦-|
17
②口口③ |--①-|
③①①② |----|
口④④口 |②-③-|
口口口口 |④---|
18
口口口口 |①-②-|
⑥口口③ |③---|
①口口④ |④-⑤-|
口②⑤口 |⑥---|
19
口①②口 |①-②-|
口③④口 |③-④-|
口⑤⑥口 |⑤-⑥-|
口⑦⑧口 |⑦-⑧-|
20
口②⑤口 |①-②-|
①口口④ |③---|
⑥口口③ |④-⑤-|
口口口口 |⑥---|
21
口⑦⑧口 |①-②-|
口⑤⑥口 |③-④-|
口③④口 |⑤-⑥-|
口①②口 |⑦-⑧-|
22
口口口口 |①-②-|
⑥口口③ |③---|
①口口④ |④-⑤-|
口②⑤口 |⑥---|
23
口①②口 |①-②-|
口③④口 |③-④-|
口⑤⑥口 |⑤-⑥-|
口⑦⑧口 |⑦-⑧-|
24
④④口口 |①-②-|
①口③③ |③---|
②口口口 |④---|
⑤⑤口口 |⑤---|
25
②口口② |①---|
口口口口 |②---|
口③③口 |③---|
口口①① |----|
26
口口口口 |①---|
口口口口 |----|
口口口③ |----|
②①①口 |②-③-|
27
②①①口 |①---|
口口口③ |----|
口口口口 |----|
口口口口 |②-③-|
28
口口口口 |①---|
口口口口 |----|
口口口口
口①①口

②口口②
口口口口
口口口口 |②---|
口③③口 |③---|
29
口口口口 |①---|
①口口① |----|
③口口口 |----|
口口口② |②-③-|
30
口①①口 |①---|
口口口口 |----|
口口口③ |----|
②口口口 |②-③-|
31
②①①口 |①---|
口口口③ |----|
口口口口 |----|
口口口口 |②-③-|
32
口口口口 |①---|
口口口口 |----|
口口口口
口①①口

口口口口
②②口口
口口口口 |②---|
③③口口 |③---|
33
①①①① |①---|
口口口口 |----|
②口口③ |②-③-|
口④⑤口 |④-⑤-|
34
③口口③ |①-②-|
⑦①口⑦ |③---|
④口②口 |④-⑤-|
口⑥⑤口 |⑥-⑦-|
35
口口口口 |----|
口口②② |----|
口口口口 |--①-|
①①口口 |②---|
36
③口口③ |①-②-|
⑦口口⑦ |③---|
口②①④ |④-⑤-|
口⑤⑥口 |⑥-⑦-|
37
口口口① |----|
口口口② |----|
口口口③ |--①-|
口口口口 |②-③-|
38
口口⑦⑦ |①-②-|
口①④口 |③---|
口⑤②口 |④-⑤-|
⑥③③口 |⑥-⑦-|
39
口⑥⑥口 |--①-|
⑥①口⑥ |②-③-|
口⑤②口 |④-⑤-|
④口口③ |⑥---|
40
③口口③ |①-②-|
⑦①口⑦ |③---|
④口②口 |④-⑤-|
口⑥⑤口 |⑥-⑦-|
41
口口口口 |----|
③口口③ |----|
口口口口 |--①-|
②②①① |②-③-|
42
③口口③ |①-②-|
⑦口①⑦ |③---|
口②口④ |④-⑤-|
口⑤⑥口 |⑥-⑦-|
43
口口口① |----|
口口口② |----|
口口口③ |--①-|
口口口口 |②-③-|
44
口口⑦⑦ |①-②-|
口①④口 |③---|
口⑤②口 |④-⑤-|
⑥③③口 |⑥-⑦-|
45
④④⑦口 |--①-|
口①⑤口 |②-③-|
⑥⑥②口 |④-⑤-|
口口口③ |⑥-⑦-|
46
⑦⑦⑦⑦ |①-②-|
③①口③ |③---|
⑥④②⑥ |④-⑤-|
口口⑤口 |⑥-⑦-|
47
口⑦⑦口 |①-②-|
⑦①②⑦ |③-④-|
口③④口 |⑤-⑥-|
口⑤⑥口 |⑦---|
48
口口口口 |----|
口口口口 |----|
口口口口 |----|
口口口口 |----|
49
口口口口 |①---|
口①③口 |②---|
口口口口 |③---|
口②④口 |④---|
50
口口口④ |①---|
③口口口 |②---|
口口口② |③---|
①口口口 |④---|
51
口口口口 |①---|
口①③口 |②---|
口口口口 |③---|
口②④口 |④---|
52
口口口④ |①---|
③口口口 |②---|
口口口② |③---|
①口口口 |④---|
53
口①③口 |①---|
口口口口 |②---|
④②④② |③---|
口口口口 |④---|
54
口口④④ |①---|
③③口口 |②---|
口口口② |③---|
口①口口 |④---|
55
口①③口 |①---|
口口口口 |②---|
④②④② |③---|
口口口口 |④---|
56
④口口④ |①---|
③④④口 |②---|
口口口② |③---|
口①口口 |④---|
57
口③③口 |①-②-|
口口口口 |③---|
口口②口
口①口口

口口口口
⑦口口⑦
④口口口 |④-⑤-|
口⑥⑤口 |⑥-⑦-|
58
口口口口 |----|
口口②② |----|
口口口口 |--①-|
①①口口 |②---|
59
③口口③ |①-②-|
⑦口口⑦ |③---|
口②①④ |④-⑤-|
口⑤⑥口 |⑥-⑦-|
60
口口口① |----|
口口口② |----|
口口口③ |--①-|
口口口口 |②-③-|
61
口口⑦⑦ |①-②-|
口①④口 |③---|
口⑤②口 |④-⑤-|
⑥③③口 |⑥-⑦-|
62
口⑥⑥口 |--①-|
⑥①口⑥ |②-③-|
口⑤②口 |④-⑤-|
④口口③ |⑥---|
63
③口口③ |①-②-|
⑦①口⑦ |③---|
④口②口 |④-⑤-|
口⑥⑤口 |⑥-⑦-|
64
口口口口 |----|
③口口③ |----|
口口口口 |--①-|
②②①① |②-③-|
65
③口口③ |①-②-|
⑦口①⑦ |③---|
口②口④ |④-⑤-|
口⑤⑥口 |⑥-⑦-|
66
口口口① |----|
口口口② |----|
口口口③ |--①-|
口口口口 |②-③-|
67
口口⑦⑦ |①-②-|
口①④口 |③---|
口⑤②口 |④-⑤-|
⑥③③口 |⑥-⑦-|
68
④④⑦口 |--①-|
口①⑤口 |②-③-|
⑥⑥②口 |④-⑤-|
口口口③ |⑥-⑦-|
69
⑦⑦⑦⑦ |①-②-|
③①口③ |③---|
⑥④②⑥ |④-⑤-|
口口⑤口 |⑥-⑦-|
70
口⑦⑦口 |①-②-|
⑦①②⑦ |③-④-|
口③④口 |⑤-⑥-|
口⑤⑥口 |⑦---|
71
口口口口 |①-②-|
口口口口 |③-④-|
①③④② |⑤-⑥-|
⑦⑤⑥⑦ |--⑦-|
72
②口口③ |--①-|
③①①② |----|
口口口口 |②-③-|
口口口口 |----|
73
口口口口 |①-②-|
口口口口 |③-④-|
①③④② |⑤-⑥-|
⑦⑤⑥⑦ |--⑦-|
74
②口口③ |--①-|
③①①② |----|
口口口口 |②-③-|
口④④口 |④---|
75
口口口口 |①-②-|
口口口口 |③-④-|
①③④② |⑤-⑥-|
⑦⑤⑥⑦ |--⑦-|
76
②口口③ |--①-|
③①①② |----|
口口口口 |②-③-|
口口口口 |----|
77
口口口口 |①-②-|
口口口口 |③-④-|
①③④② |⑤-⑥-|
⑦⑤⑥⑦ |--⑦-|
78
④口口④ |--①-|
②④④③ |----|
③①①② |②-③-|
口口口口 |④---|
79
口①③口 |①---|
口口口口 |②---|
④②④② |③---|
口口口口 |④---|
80
口口④④ |①---|
③③口口 |②---|
口口口② |③---|
口①口口 |④---|
81
口①③口 |①---|
口口口口 |②---|
④②④② |③---|
口口口口 |④---|
82
口口口④ |①---|
③口口口 |②---|
口口口② |③---|
口①口口 |④---|
83
口口口口 |①---|
口①③口 |②---|
口口口口 |③---|
口②④口 |④---|
84
口口口④ |①---|
③口口口 |②---|
口口口② |③---|
①口口口 |④---|
85
口口口口 |①---|
口①③口 |②---|
口口口口 |③---|
口②④口 |④---|
86
口口口④ |①---|
③口口口 |②---|
口口口② |③---|
①口口口 |④---|

不確定度: 0

最終更新:2017年08月03日 01:12