Endless, Sleepless Night
samfree feat. (V)・∀・(V) かにぱん。

EXTREME

Level: 9
BPM: 165
Notes: 848

1
口口口口 |----|
口口口口 |----|
口口口口 |----|
口口口口 |----|
2
①口口口 |①---|
口口口口 |--②-|
口口口②
口口口口

⑤口口口
口口④口
口口口口 |③-④-|
口口③口 |--⑤-|
3
口口口口 |①---|
口口口② |②---|
①口③口 |③---|
口④口口 |④---|
4
口口口① |①---|
口口口口 |--②-|
②口口口
口口口口

口口口⑤
口④口口
口口口口 |③-④-|
口③口口 |--⑤-|
5
口口口口 |①---|
②口口口 |②---|
口③口① |③---|
口口④口 |④---|
6
①口口口 |①---|
口口口口 |--②-|
口口口②
口口口口

⑤口口口
口口④口
口口口口 |③-④-|
口口③口 |--⑤-|
7
口口②③ |①---|
口口④② |②---|
①口③④ |③---|
口口口口 |④---|
8
口口口⑤ |①---|
口④口① |--②-|
②口口口 |③-④-|
口③口口 |--⑤-|
9
②口口口 |①---|
④口④② |②---|
④口④① |③---|
③④③口 |④---|
10
③③④④ |①②③-|
口⑤口② |④-⑤⑥|
口①口口
口口⑥口

⑨口口口
口口口口
口口⑦⑦ |⑦-⑧-|
⑧⑧口⑨ |--⑨-|
11
口口口⑦ |--①-|
⑥②③① |②③④⑤|
①④⑤⑥ |⑥-⑦-|
⑦⑧口⑨ |--⑧⑨|
12
③③口⑥ |①②③-|
⑤口口② |④-⑤⑥|
①④④口
口口口口

口口口口
口⑦⑦⑨
⑨口口口 |⑦-⑧-|
⑧⑧口口 |--⑨-|
13
①口⑧口 |--①-|
口②③⑧ |②③④⑤|
⑨④⑤⑨ |⑥⑦⑧-|
口⑥⑦① |⑨---|
14
③③口② |①②③-|
①④④⑥ |④-⑤⑥|
口口口口
口⑤口口

口口口⑨
口口口口
⑦⑦口口 |⑦-⑧-|
⑨口⑧⑧ |--⑨-|
15
⑦口口口 |--①-|
①②③⑥ |②③④⑤|
⑥④⑤① |⑥-⑦-|
口口口⑦ |----|
16
口口口口 |①②③-|
③③口⑥ |④-⑤⑥|
⑤口口②
①④④口

口⑦⑦口
⑨口口口
口⑧⑧⑨ |⑦-⑧-|
口口口口 |--⑨-|
17
口⑧口① |--①-|
⑧②③口 |②③④⑤|
⑨④⑤⑨ |⑥⑦⑧-|
①⑥⑦口 |⑨---|
18
③⑥③⑥ |①-②-|
口④口① |③---|
口口口口 |④-⑤-|
口⑤口② |⑥---|
19
口口口口 |①-②-|
②口口① |③-④-|
④口口③
口口口口

⑥口口⑥
⑧口口⑦
口口口口 |⑤-⑥-|
⑦⑤⑤⑧ |⑦-⑧-|
20
口③①口 |①-②-|
口口③口 |③---|
口口②口
口口口口

④口⑥口
⑥口口口
⑤口口口 |④-⑤-|
口口口口 |⑥---|
21
口口口口 |①-②-|
口①②口 |③-④-|
口③④口
口口口口

口口⑦口
⑥⑧口⑤
⑦口口⑧ |⑤-⑥-|
⑤口口⑥ |⑦-⑧-|
22
口③口① |①-②-|
口口口③ |③---|
口口②口
口口口口

④口口⑥
⑥口口口
口⑤口口 |④-⑤-|
口口口口 |⑥---|
23
⑦①②⑥ |①-②-|
⑤③④⑤ |③-④-|
⑥口口⑦ |⑤-⑥-|
口⑧⑧口 |⑦-⑧-|
24
口口①④ |①-②-|
④③③口 |③---|
⑤口②口 |④---|
口口⑤口 |⑤---|
25
②口口口 |①---|
口口③② |②---|
③②①口 |③---|
口①③① |----|
26
口口口② |①-②-|
口口口口 |--③-|
口①①口
口口口③

④口口口
口口口口
口⑥⑤口 |--④-|
口口口口 |⑤-⑥-|
27
口口口④ |①-②-|
口口②口 |--③-|
口⑥⑤口 |--④-|
③口①口 |⑤-⑥-|
28
口口口口 |①-②-|
口口②④ |--③-|
口口⑤口 |④---|
③口①口 |⑤---|
29
口口口④ |①-②-|
⑤②口口 |--③-|
口⑥口口 |--④-|
口①口③ |⑤-⑥-|
30
④口口口 |①-②-|
口口②⑤ |--③-|
口口⑥口 |--④-|
③口①口 |⑤-⑥-|
31
口口口④ |①-②-|
⑤②口口 |--③-|
口⑥口口 |--④-|
口①口③ |⑤-⑥-|
32
口口口口 |①-②-|
口口②口 |--③-|
口⑦⑥口 |④-⑤-|
③⑤①④ |⑥-⑦-|
33
①⑤口① |①---|
⑤①①② |----|
③口口④ |②-③-|
口③口口 |④-⑤-|
34
①口③③ |①-②-|
口口口口 |③---|
口②口口
口口口口

⑦⑦口口
口口④⑤
口口⑤④ |④-⑤-|
口⑥⑥口 |⑥-⑦-|
35
②口口① |----|
口②①口 |----|
口①②口 |--①-|
①口口② |②---|
36
口①⑦⑦ |①-②-|
①口⑤② |③---|
⑥④⑥⑤ |④-⑤-|
④③③口 |⑥-⑦-|
37
口口口口 |----|
①口口口 |----|
口②口口 |--①-|
口口③口 |②-③-|
38
③③口① |①-②-|
⑤④⑦⑦ |③---|
④⑤②口 |④-⑤-|
口⑥⑥口 |⑥-⑦-|
39
①⑥⑥口 |--①-|
口⑥⑥口 |②-③-|
⑤⑥⑥② |④-⑤-|
③⑥⑥④ |⑥---|
40
⑦⑦口③ |①-②-|
①④⑤口 |③---|
口⑤④② |④-⑤-|
③⑥⑥口 |⑥-⑦-|
41
①口口② |----|
口①②口 |----|
③②①③ |--①-|
②口口① |②-③-|
42
口口③口 |①-②-|
②口口③ |③---|
口口口口
口口①口

⑦⑦口口
口口口口
口④⑤口 |④-⑤-|
④⑥⑥⑤ |⑥-⑦-|
43
口口口口 |----|
口口口① |----|
口口②口 |--①-|
口③口口 |②-③-|
44
⑦⑦③③ |①-②-|
①④口口 |③---|
④②⑤口 |④-⑤-|
口⑥⑥⑤ |⑥-⑦-|
45
口口口② |--①-|
①③②口 |②-③-|
③①口口
口口口口

⑤口口口
口口口口
口⑦⑤⑥ |④-⑤-|
⑥④④⑦ |⑥-⑦-|
46
口①①口 |①-②-|
②口口② |③---|
口口口口
口③③口

口⑦⑦口
⑦口口⑦
④⑥⑥④ |④-⑤-|
⑤口口⑤ |⑥-⑦-|
47
①⑬⑬② |①②③④|
⑬③④⑬ |⑤⑥⑦⑧|
⑤⑪⑫⑥ |⑨⑩⑪⑫|
⑨⑦⑧⑩ |⑬---|
48
口⑦⑥口 |----|
⑧⑫⑪⑤ |①②③④|
①⑨⑩④ |⑤⑥⑦⑧|
口②③口 |⑨⑩⑪⑫|
49
①口口口 |①---|
口口口口 |②-③-|
②口口③
口口口口

⑥口口口
口口⑤口
口口口口 |④-⑤-|
口口④口 |--⑥-|
50
口口②③ |①---|
口口④② |②---|
口①③④ |③---|
口口口口 |④---|
51
口口口⑥ |①---|
口⑤口① |②-③-|
③口口口 |④-⑤-|
口④口② |--⑥-|
52
口②口口 |①---|
口④②① |②---|
口口③口 |③---|
口③④口 |④---|
53
口⑤⑧⑧ |①-②-|
口⑦②② |③-④-|
③口④④ |⑤-⑥-|
①口⑥⑥ |⑦-⑧-|
54
口④④口 |①---|
①口③② |②---|
口①②口 |③---|
口③口口 |④---|
55
①口⑥⑥ |①-②-|
③口⑧⑧ |③-④-|
口⑦②② |⑤-⑥-|
口⑤④④ |⑦-⑧-|
56
口口口口 |①---|
口②口口 |②---|
①口口①
口口②口

口口口③
④口④口
④口④口 |③---|
③④口口 |④---|
57
①口③③ |①-②-|
口口口口 |③---|
口②口口
口口口口

⑦⑦口口
口口④⑤
口口⑤④ |④-⑤-|
口⑥⑥口 |⑥-⑦-|
58
⑦口③⑥ |-①②-|
①⑦⑥④ |③-④⑤|
②⑥⑦⑤ |--⑥-|
⑥口口⑦ |⑦---|
59
口①⑦⑦ |①-②-|
①口⑤② |③---|
⑥④⑥⑤ |④-⑤-|
④③③口 |⑥-⑦-|
60
口①口口 |-①②-|
⑦②口③ |③-④⑤|
⑥⑧口⑤ |-⑥⑦-|
口口⑨④ |⑧-⑨-|
61
③③口① |①-②-|
⑤④⑦⑦ |③---|
④⑤②口 |④-⑤-|
口⑥⑥口 |⑥-⑦-|
62
①⑥⑥口 |--①-|
口⑥⑥口 |②-③-|
⑤⑥⑥② |④-⑤-|
③⑥⑥④ |⑥---|
63
⑦⑦口③ |①-②-|
①④⑤口 |③---|
口⑤④② |④-⑤-|
③⑥⑥口 |⑥-⑦-|
64
口口③口 |-①②-|
①口口④ |③-④⑤|
②口口⑤
口口口口

⑥⑧口⑦
⑧⑥⑦口
口⑦⑥口 |--⑥-|
⑦口口⑥ |⑦-⑧-|
65
口口③口 |①-②-|
口口口③ |③---|
②口口口
口口①口

⑦⑦口口
口口口口
口④⑤口 |④-⑤-|
④⑥⑥⑤ |⑥-⑦-|
66
口口①口 |-①②-|
③口②⑦ |③-④⑤|
⑤口⑧⑥ |-⑥⑦-|
④⑨口口 |⑧-⑨-|
67
⑦⑦③③ |①-②-|
①④口口 |③---|
④②⑤口 |④-⑤-|
口⑥⑥⑤ |⑥-⑦-|
68
口口口② |--①-|
①③②口 |②-③-|
③①口口
口口口口

⑤口口口
口口口口
口⑦⑤⑥ |④-⑤-|
⑥④④⑦ |⑥-⑦-|
69
口①①口 |①-②-|
②口口② |③---|
口口口口
口③③口

口⑦⑦口
⑦口口⑦
④⑥⑥④ |④-⑤-|
⑤口口⑤ |⑥-⑦-|
70
①⑬⑬② |①②③④|
⑬③④⑬ |⑤⑥⑦⑧|
⑤⑪⑫⑥ |⑨⑩⑪⑫|
⑨⑦⑧⑩ |⑬---|
71
口口口② |①②③-|
口③③口 |④-⑤⑥|
①⑤口口
④④⑥口

⑨⑦⑦⑨
口口口口
口口⑧⑧ |⑦-⑧-|
口口口口 |--⑨-|
72
口②③口 |--①-|
⑦④⑤⑦ |②③④⑤|
⑧口口⑨ |⑥-⑦-|
①⑥⑥① |--⑧⑨|
73
口⑤③③ |①②③-|
口口口⑥ |④-⑤⑥|
口④④口
①口口②

⑨口口⑨
⑦⑦口口
口口口口 |⑦-⑧-|
口⑧⑧口 |--⑨-|
74
⑧⑥⑦⑧ |--①-|
口②③口 |②③④⑤|
口④⑤口 |⑥⑦⑧-|
①⑨⑨① |⑨---|
75
⑨⑦⑦⑨ |①②③-|
⑤口④④ |④-⑤⑥|
③③⑥② |⑦-⑧-|
①⑧⑧口 |--⑨-|
76
口②③口 |--①-|
⑦④⑤⑦ |②③④⑤|
口口口口 |⑥-⑦-|
①⑥⑥① |----|
77
③③口② |①②③-|
⑤口口口 |④-⑤⑥|
①④④⑥
口口口口

⑨口口⑨
口口⑦⑦
口口口口 |⑦-⑧-|
口⑧⑧口 |--⑨-|
78
⑨②③⑨ |--①-|
⑨④⑤⑨ |②③④⑤|
⑥⑨⑨⑦ |⑥⑦⑧-|
①⑧⑧① |⑨---|
79
口⑤⑥口 |①-②-|
口⑦⑧口 |③-④-|
③口口④ |⑤-⑥-|
①口口② |⑦-⑧-|
80
口④④口 |①---|
①③口② |②---|
口①②口 |③---|
口口③口 |④---|
81
②口口① |①-②-|
④⑧⑦③ |③-④-|
口口口口 |⑤-⑥-|
⑥口口⑤ |⑦-⑧-|
82
口④④口 |①---|
②口③① |②---|
口②①口 |③---|
口③口口 |④---|
83
①口口口 |①---|
口口口口 |--②-|
口口口②
口口口口

⑤口口口
口口④口
口口口口 |③-④-|
口口③口 |--⑤-|
84
口口口口 |①---|
口口口② |②---|
①口③口 |③---|
口④口口 |④---|
85
口口口① |①---|
口口口口 |--②-|
②口口口
口口口口

口口口⑤
口④口口
口口口口 |③-④-|
口③口口 |--⑤-|
86
口口口口 |①---|
②口口口 |②---|
口③口① |③---|
口口④口 |④---|

不確定度: 0

最終更新:2017年08月03日 01:11