BLACK or WHITE?
BlackYooh vs. siromaru

ADVANCED

Level: 9
BPM: 185
Notes: 745

1
口口口口 |----|
口口口口 |----|
口口口口 |----|
口口口口 |----|
2
口口口口 |①---|
口口口口 |----|
口口口口 |②---|
②②①① |----|
3
口口口口 |①---|
口口口口 |----|
②②①① |②---|
口口口口 |----|
4
口口口口 |①---|
②②①① |----|
口口口口 |②---|
口口口口 |----|
5
②②①① |①---|
口口口口 |----|
口口口口 |②---|
口口口口 |----|
6
口口口口 |①---|
口口口口 |----|
口口口口 |②---|
②②①① |----|
7
口口口口 |①---|
口口口口 |----|
②②①① |②---|
口口口口 |----|
8
口口口口 |①-|
口口口口
口口口
口口口

口口口口 |②-|
口口口口
口口口
口口

口口口口
口口口 |③-|
口口
口口口

口口口口
口口 |④-|

口口口口

口口口口
口口口
|⑤-|
口口口口

口口口口
口口
口口口 |⑥-|
口口口口

口口

口口口口
口口口口 |⑦-|


口口
口口口口
口口口口 |⑧-|
9
口口 |①---|
口 |②---|



口口口口
口口口口
口口口口 |----|
口 |③---|
10
②②④④ |①-②-|
⑥⑥⑧⑧ |③-④-|
⑤口口⑦ |⑤-⑥-|
①口口③ |⑦-⑧-|
11
②②④④ |①-②-|
⑦⑧⑨⑩ |③-④-|
口⑥⑥口 |⑤-⑥-|
⑤①③⑤ |⑦⑧⑨⑩|
12
②②④④ |①-②-|
口口口口 |③-④-|
⑥⑥⑧⑧ |⑤-⑥-|
⑤①③⑦ |⑦-⑧-|
13
⑤⑥⑦⑧ |①-②-|
②②④④ |③-④-|
⑨⑩⑪口 |⑤⑥⑦⑧|
口①③口 |⑨⑩⑪-|
14
口口口口 |①|
口口
口口
口口

④④⑥⑥ |②--|
⑧⑧口口 |③-④-|
口口口口 |⑤-⑥-|
⑦⑤ |⑦-⑧-|
15
④④⑥⑥ |①-②-|
口口②② |③-④-|
⑦⑧⑨⑩ |⑤-⑥-|
③①口⑤ |⑦⑧⑨⑩|
16
口口⑥⑥ |①-②-|
④④②② |③-④-|
⑦⑧⑨⑩ |⑤-⑥-|
⑤①③口 |⑦⑧⑨⑩|
17
①口口口 |①-②-|
口③③② |③-④-|
口口口口
口④④口

口⑤口⑥
口口口口
⑦口⑧口 |⑤⑥⑦⑧|
|⑨|

口口口口
口口口口
口口口口
口口口 |⑩--|
18
口④①口 |①-②-|
口口口口 |③---|
⑥②⑤③ |④-⑤-|
⑥口口③ |⑥---|
19
⑤④口③ |①-②-|
⑤②①③ |③---|
口口口口 |④---|
口口口口 |⑤---|
20
口口口口 |①-②-|
⑥口口③ |③---|
口④⑤口 |④-⑤-|
⑥②①③ |⑥---|
21
口②①口 |①-②-|
口④③口 |③-④-|
口⑥⑤口 |⑤-⑥-|
口⑧⑦口 |⑦-⑧-|
22
口口口① |①---|
口口口② |②---|
口口口③ |③---|
口口口④ |④---|
23
口口①口 |①---|
口口②口 |②---|
口口③口 |③---|
口口④口 |④---|
24
口①口口 |①---|
口②口口 |②---|
口③口口 |③---|
口④口口 |④---|
25
①口口口 |①---|
②口口口 |②---|
③口口口 |③---|
④口口口 |④---|
26
口④口 |①---|
口③口 |②---|
口②口 |③---|
口口口 |④---|
27
①口口口 |----|
②口口口 |①---|
口口口口 |②---|
口口口口 |----|
28
④口口口 |①---|
③口口口 |②---|
②口口口 |③---|
①口口口 |④---|
29
口①口口 |----|
口②口口 |①---|
口口口口 |②---|
口口口口 |----|
30
口④口⑤ |①-②-|
⑥口③口 |③-④-|
口②口⑦ |⑤-⑥-|
⑧口① |⑦-⑧-|
31
⑤口④口 |①-②-|
口③口⑥ |③-④-|
⑦口②口 |⑤-⑥-|
口①口⑧ |⑦-⑧-|
32
口④口⑤ |①-②-|
⑥口③口 |③-④-|
口②口⑦ |⑤-⑥-|
⑧口①口 |⑦-⑧-|
33
⑤口④口 |①-②-|
口③口⑥ |③-④-|
⑦口②口 |⑤-⑥-|
口①口⑧ |⑦-⑧-|
34
⑤口口⑨ |①-②-|
⑥③④⑩ |③-④-|
⑦口口⑪ |⑤⑥⑦⑧|
⑧①②⑫ |⑨⑩⑪⑫|
35
口①②口 |①-②-|
口⑤⑥口 |③-④-|
口③④口 |⑤-⑥-|
口⑦⑧口 |⑦-⑧-|
36
口⑤⑨口 |①-②-|
③⑥⑩④ |③-④-|
口⑦⑪口 |⑤⑥⑦⑧|
①⑧⑫② |⑨⑩⑪⑫|
37
①口口② |①-②-|
⑤口口⑥ |③-④-|
③口口④ |⑤-⑥-|
⑦口口⑧ |⑦-⑧-|
38
⑤口口⑨ |①-②-|
⑥口口⑩ |③-④-|
⑦③④⑪ |⑤⑥⑦⑧|
⑧①②⑫ |⑨⑩⑪⑫|
39
口口口口 |①-②-|
⑦③④⑧ |③-④-|
口⑤⑥口 |⑤-⑥-|
口①②口 |⑦-⑧-|
40
⑤①②⑨ |①-②-|
⑥口口⑩ |③-④-|
⑦口口⑪ |⑤⑥⑦⑧|
⑧③④⑫ |⑨⑩⑪⑫|
41
口口口 |①---|
口口口 |----|
口口
口口

口口口口

|②---|
口口口口

口口口口
口口
口口
口口口口 |③---|
42
①口口① |①---|
⑤口④口 |--②③|
⑥③口口 |④-⑤-|
⑦口②口 |⑥-⑦-|
43
口①口① |①---|
③②③② |②---|
④口④口 |③---|
口口口口 |④---|
44
①口口① |①---|
⑤口④口 |--②③|
⑥③口口 |④-⑤-|
⑦口②口 |⑥-⑦-|
45
口③①口 |①---|
③口口① |②---|
口④②口 |③---|
④口口② |④---|
46
①口口① |①---|
口④口⑤ |--②③|
口口③⑥ |④-⑤-|
口②口⑦ |⑥-⑦-|
47
①口①口 |①---|
②③②③ |②---|
口④口④ |③---|
口口口口 |④---|
48
①口口① |①---|
口④口⑤ |--②③|
口口③⑥ |④-⑤-|
口②口⑦ |⑥-⑦-|
49
口①③口 |①---|
①口口③ |②---|
口②④口 |③---|
②口口④ |④---|
50
①口口① |①---|
⑤口④口 |--②③|
⑥③口口 |④-⑤-|
⑦口②口 |⑥-⑦-|
51
口①口① |①---|
③②③② |②---|
④口④口 |③---|
口口口口 |④---|
52
④②②④ |----|
口口口口 |①-②-|
口⑤⑤口 |③-④-|
③①①③ |⑤---|
53
⑤④④⑤ |①--②|
②②①① |--③-|
口口口口 |-④--|
口③③口 |⑤---|
54
⑩⑨⑧⑦ |①---|
②③④⑤ |②③④⑤|
口①①口 |⑥---|
口⑥⑥口 |⑦⑧⑨⑩|
55
口口口口 |①---|
⑩⑨⑧⑦ |②③④⑤|
②③④⑤ |⑥---|
①⑥⑥① |⑦⑧⑨⑩|
56
③①①② |①---|
⑥⑦⑧⑨ |②-③-|
⑤口口④ |④-⑤-|
口口口口 |⑥⑦⑧⑨|
57
⑤①①③ |①---|
口口口口 |②---|
口②②口 |③-④-|
⑥口口④ |⑤-⑥-|
58
⑤④口 |①---|
⑥③口 |②-③-|
⑦②口 |④-⑤-|
口口口 |⑥-⑦-|
59
④③口口 |----|
⑤②口口 |①-②-|
⑥①口口 |③-④-|
口口口口 |⑤-⑥-|
60
④③口口 |----|
⑤②口口 |①-②-|
⑥①口口 |③-④-|
口口口口 |⑤-⑥-|
61
④③口口 |----|
⑤②口口 |①-②-|
⑥①口口 |③-④-|
口口口口 |⑤-⑥-|
62
⑤④口口 |①---|
⑥③口口 |②-③-|
⑦②口口 |④-⑤-|
口口口 |⑥-⑦-|
63
④③口口 |----|
⑤②口口 |①-②-|
⑥①口口 |③-④-|
口口口口 |⑤-⑥-|
64
口⑧⑦口 |①-②-|
口⑥⑤口 |③-④-|
口④③口 |⑤-⑥-|
口②①口 |⑦-⑧-|
65
②口口① |①-②-|
④口口③ |③-④-|
⑥口口⑤ |⑤-⑥-|
⑧口口⑦ |⑦-⑧-|
66
③⑥⑥③ |①-②-|
⑤口口⑤ |③---|
④②②④ |④-⑤-|
口①①口 |⑥---|
67
④口口③ |①---|
口②①口 |②---|
口④③口 |③---|
②口口① |④---|
68
口③⑥口 |①-②-|
③口口⑥ |③---|
⑤口口② |④-⑤-|
④口口① |⑥---|
69
口口口口 |①-②-|
口口口口 |③-④-|
⑧④③⑦ |⑤-⑥-|
⑥②①⑤ |⑦-⑧-|
70
口⑥③口 |①-②-|
⑥口口③ |③---|
口⑤②口 |④-⑤-|
口④①口 |⑥---|
71
⑥口口③ |①-②-|
口⑥③口 |③---|
⑤口口② |④-⑤-|
④口口① |⑥---|
72
口③⑥口 |①-②-|
①口口④ |③---|
口②⑤口 |④-⑤-|
口⑥③口 |⑥---|
73
口口口 |①---|
口口口 |----|
口口口
口口口

口口⑤口
口口④口
口口③口 |----|
口②口 |②③④⑤|
74
③⑦口② |①---|
⑤①⑧④ |②③④⑤|
口口口⑥ |⑥--⑦|
口①口口 |--⑧-|
75
口口③② |①-②③|
⑤④口口 |④⑤--|
口口口口
口①口口

⑥口口口
口口口⑦
⑥口口口 |⑥--⑦|
口⑧⑧⑦ |--⑧-|
76
⑥②①⑤ |①②③④|
⑩④③⑨ |⑤⑥⑦⑧|
⑧⑭⑬⑦ |⑨⑩⑪⑫|
⑫⑯⑮⑪ |⑬⑭⑮⑯|
77
③②①口 |①-②-③-|
口④⑤⑥ |④-⑤-⑥-|
口口口口
口口口口

口口⑫⑦
⑧口口口
口⑪口⑨ |⑦-⑧-⑨-|
口口⑩口 |⑩-⑪-⑫-|
78
⑥①口⑤ |①---|
口③②口 |②-③-|
口口④口 |④---|
口口口口 |⑤-⑥-|
79
口⑧⑦口 |①②③④|
口⑥⑤口 |⑤⑥⑦⑧|
④口口③
口②①口

口口口口
⑩口口⑨
口⑭⑬口 |⑨⑩⑪⑫|
⑫⑯⑮⑪ |⑬⑭⑮⑯|
80
②口⑤① |①---|
口⑥口③ |②-③-|
④口口口 |④---|
口口口口 |⑤-⑥-|
81
口口口口 |①②③④|
口口口口 |⑤⑥⑦⑧|
⑥②①⑤
⑧④③⑦

口口口⑨
口口⑩口
口⑪口口 |⑨--⑩|
口口口口 |--⑪-|
82
口①①③ |①---|
②②口口 |②---|
口⑤④口 |③-④-|
⑥口口口 |⑤-⑥-|
83
⑥①①口 |①---|
口口②② |②---|
口⑤④口 |③-④-|
口口口③ |⑤-⑥-|
84
④④②② |①---|
口口口口 |②---|
口口口口 |③---|
①口口③ |④---|
85
④口口② |①---|
口③①口 |②---|
口①③口 |③---|
②口口④ |④---|
86
口⑦⑧口 |①-②-|
口⑤⑥口 |③-④-|
口③④口 |⑤-⑥-|
口①②口 |⑦-⑧-|
87
⑦口口⑧ |①-②-|
⑤口口⑥ |③-④-|
③口口④ |⑤-⑥-|
①口口② |⑦-⑧-|
88
⑬①⑤⑭ |①②③④|
⑨②⑥⑩ |⑤⑥⑦⑧|
⑪③⑦⑫ |⑨⑩⑪⑫|
⑮④⑧⑯ |⑬⑭⑮⑯|
89
⑦口口⑩ |①-②-|
⑥①②⑨ |③-④-|
⑤口口⑧ |⑤-⑥-⑦-|
口③④口 |⑧-⑨-⑩-|
90
口 |----|
口 |①---|
口 |----|
口 |----|
91
口口口口 |----|
口口口口 |----|
口口口口 |----|
口口口口 |----|
92
口口口口 |----|
口口口口 |----|
口口口口 |----|
口口口口 |----|
93
口口口口 |----|
口口口口 |----|
口口口口 |----|
口口口口 |----|
94
口口口口 |①---|
口 |----|
口 |----|
口口口口 |----|

不確定度: 0

最終更新:2017年08月03日 01:15