Struggle [2]
Masayoshi Minoshima(ALR)

EXTREME

Level: 8
BPM: 180
Notes: 618

1
口口口口 |----|
口口口口 |----|
口口口口 |----|
口口口口 |----|
2
口口口口 |----|
口口口口 |----|
口口口口 |----|
口口口口 |----|
3
③口口② |①-②-|
口①①④ |③-④-|
口①①口
口口口口



⑥ |⑤-⑥-|
口 |⑦|

口口口口
口口口口
口口口口
口 |⑧--|
4
③口⑤① |①-②-|
⑧口口⑧ |③-④-|
⑦口口⑦ |⑤-⑥-|
④口⑥② |⑦-⑧-|
5
口口⑦① |--①-|
⑥②③口 |--②③|
口④口口 |④-⑤-|
口口⑤口 |⑥-⑦-|
6
①⑤口③ |①-②-|
⑧口口⑧ |③-④-|
⑦口口⑦ |⑤-⑥-|
②⑥口④ |⑦-⑧-|
7
①⑥口口 |--①-|
口③②⑦ |--②③|
口口④口 |④-⑤-|
口⑤口口 |⑥-⑦-|
8
③口⑤① |①-②-|
⑧口口⑧ |③-④-|
⑦口口⑦ |⑤-⑥-|
④口⑥② |⑦-⑧-|
9
口口⑦① |--①-|
⑥②③口 |--②③|
口④口口 |④-⑤-|
口口⑤口 |⑥-⑦-|
10
②口口① |①---|
④口口④ |②---|
③口口③ |③-④-|
①⑤⑤② |--⑤-|
11
口②口口 |--①-|
口①①口 |--②-|
口④③口 |--③-|
口口口口 |④---|
12
③口⑤① |①-②-|
⑧口口⑧ |③-④-|
⑦口口⑦ |⑤-⑥-|
④口⑥② |⑦-⑧-|
13
①①⑦口 |--①-|
口③②口 |--②③|
口口④⑥ |④-⑤-|
口⑤口口 |⑥-⑦-|
14
①⑤口③ |①-②-|
⑧口口⑧ |③-④-|
⑦口口⑦ |⑤-⑥-|
②⑥口④ |⑦-⑧-|
15
口⑥①① |--①-|
口②③口 |--②③|
⑦④口口 |④-⑤-|
口口⑤口 |⑥-⑦-|
16
③口⑤① |①-②-|
⑧口口⑧ |③-④-|
⑦口口⑦ |⑤-⑥-|
④口⑥② |⑦-⑧-|
17
①①⑦口 |--①-|
口③②口 |--②③|
口口④⑥ |④-⑤-|
口⑤口口 |⑥-⑦-|
18
①口口② |①---|
口④④口 |②---|
口③③口 |③-④-|
②⑤⑤① |--⑤-|
19
③口口口 |--①-|
①④口① |--②-|
口②②口 |③---|
口口口口 |④---|
20
口口口口 |①---|
口口口 |②-③-|
①口口 |--④-|
②③④ |--⑤-|
21
①口口口 |----|
口②口口 |----|
口口口口 |①---|
口口口口 |②---|
22
口口口口 |①---|
口口口口 |②-③-|
①口口口
②③口

口口口口
口口口
口口口 |--④-|
口口④ |--⑤-|
23
①口口口 |----|
口②口口 |----|
口口口口 |①---|
口口口口 |②---|
24
口口口口 |①---|
口口口口 |②-③-|
①口口口
②③口

口口口口
口口口
口口④ |--④-|
口口口 |--⑤-|
25
①口口口 |----|
口②口 |----|
口口口口 |①---|
口口口口 |②---|
26
口口口口 |①---|
口口口 |②-③-|
①口④ |--④-|
②③口 |--⑤-|
27
①①口口 |----|
②②口 |----|
口口口口 |①---|
口口口口 |②---|
28
口口口口 |①-②-|
口口①口 |③-④-|
②④④口
口口③口

口口⑤⑤
口口
口口 |--⑤-|
口口 |--⑥-|
29
口口①① |----|
口口③③ |----|
口口口口 |①-②-|
口口 |③---|
30
口口口口 |①---|
④④ |②-③-|
口① |--④-|
③② |--⑤-|
31
口口①① |----|
口口③③ |----|
口口口口 |①-②-|
口口 |③---|
32
④④ |①---|
口口 |②-③-|
口① |--④-|
口口③② |--⑤-|
33
①① |----|
口口②② |----|
口口口口 |①---|
口口口口 |②---|
34
④④ |①---|
口口 |②-③-|
口① |--④-|
口口③② |--⑤-|
35
口口口口 |----|
口口口口 |----|
口口口口 |----|
口口口口 |----|
36
口② |①---|
口口口口 |②---|
口口口口
口①①口

口口③口
口口口④
⑤口口口 |③-④-|
口⑥口口 |⑤-⑥-|
37
口③口口 |①---|
口口②口 |--②-|
口①①口 |③---|
口口口口 |----|
38
④口③② |①---|
口⑤口口 |②-③-|
①①⑥口 |--④-|
口口口口 |⑤-⑥-|
39
口口口① |--①-|
④口②口 |②-③-|
口⑤口③ |④-⑤-|
⑥口口口 |⑥---|
40
②②口口 |①---|
口口口口 |②---|
口口口口
口①①口

口口口③
口口④口
口口口⑤ |③-④-|
口口⑥口 |⑤-⑥-|
41
口口③口 |①---|
口②口口 |--②-|
口①①口 |③---|
口口口口 |----|
42
②③口④ |①---|
口口⑤口 |②-③-|
口⑥①① |--④-|
口口口口 |⑤-⑥-|
43
④⑥⑥⑤ |--①-|
口口口③ |②-③-|
②口口口 |④-⑤-|
口口口① |⑥---|
44
④口口③ |①---|
②②口口 |②---|
口口口口 |③-④-|
⑥①①⑤ |⑤-⑥-|
45
口口口口 |①---|
口口④③ |②-③-|
口②②口 |④---|
⑤①①⑤ |⑤---|
46
②③口⑤ |①---|
口口⑥口 |②-③-|
④⑦口④ |④-⑤-|
口①①口 |⑥-⑦-|
47
②口口口 |①-②-|
口③口⑤ |③-④-|
④口⑥口 |⑤-⑥-|
口①①⑦ |⑦---|
48
④口口③ |①---|
②②口口 |②---|
口口口口 |③-④-|
⑥①①⑤ |⑤-⑥-|
49
②② |①---|
口口 |--②-|
①① |③---|
口口口口 |----|
50
⑦口口⑤ |①-②-|
口③①口 |③-④-|
口口 |⑤-⑥-|
⑧④②⑥ |⑦-⑧-|
51
⑩②①⑪ |①②③④|
④⑩口③ |⑤⑥⑦⑧|
口⑥⑤⑨ |⑨-⑩-|
⑫⑧⑦口 |⑪-⑫-|
52
⑤口④口 |①---|
②⑤①④ |②---|
口③③口 |③---|
口②口① |④-⑤-|
53
口⑥口④ |--①-|
口口⑤口 |②-③-|
②③③① |--④-|
口②①口 |⑤-⑥-|
54
①口口口 |①---|
⑤口口④ |②---|
口②②口 |③---|
口③③口 |④-⑤-|
55
③口⑥③ |--①-|
口口⑤口 |②-③-|
②口④② |--④-|
①口口① |⑤-⑥-|
56
口④口⑤ |①---|
④①⑤② |②---|
口③③口 |③---|
①口②口 |④-⑤-|
57
④口⑥口 |--①-|
口⑤口口 |②-③-|
①③③② |--④-|
口①②口 |⑤-⑥-|
58
③口口① |①---|
口⑤⑤口 |②---|
口口口口 |③---|
④口口② |④-⑤-|
59
④口⑤口 |--①-|
③口口③ |②-③-|
⑥②②口 |--④-|
口①①口 |⑤-⑥-|
60
⑧⑥⑦口 |①-②-|
③⑧①⑦ |③-④-|
口⑤⑤口 |⑤-⑥-|
④③②① |⑦-⑧-|
61
口口口口 |①-②-|
口口①口 |③-④-|
③④④②
口③②口

口⑤⑥口
⑦口⑧口
口口口口 |⑤-⑥-|
口口口口 |⑦-⑧-|
62
口⑦⑥⑧ |①-②-|
⑦①⑧③ |③-④-|
口⑤⑤口 |⑤-⑥-|
①②③④ |⑦-⑧-|
63
口口口口 |①-②-|
口①口口 |③-④-|
②④④③
口②③口

⑤口口口
口⑦⑥口
口口口口 |--⑤-|
口口口口 |⑥-⑦-|
64
口口口 |①---|
口口口 |----|
口口口
口口口口

口口口
口口口
口口口 |②---|
口口口 |----|
65
口口口口 |①---|
口口口口 |----|
口口口口



口口口口
口口口口 |②---|
口口口 |----|
66
口口口 |①---|
口口口 |----|
口口口
口口口口

口口口口
口口
口口 |②---|
口口口口 |----|
67
口口口口 |①---|
口口口 |----|

口口口口

口口口口
口口
口口 |②---|
口口口口 |----|
68
口口口口 |〇〇〇〇|
口口口口
口口口口
口口口口

口 |①---|
口 |----|
口 |----|
口 |----|
69
口口口口 |----|
口口口口 |----|
口口口口 |----|
口 |①---|
70
①⑤口③ |①-②-|
⑧口口⑧ |③-④-|
②⑥口④ |⑤-⑥-|
口⑦⑦口 |⑦-⑧-|
71
①⑥口口 |--①-|
口③②⑦ |--②③|
口口④口 |④-⑤-|
口⑤口口 |⑥-⑦-|
72
③口⑤① |①-②-|
⑧口口⑧ |③-④-|
⑦口口⑦ |⑤-⑥-|
④口⑥② |⑦-⑧-|
73
口口⑦① |--①-|
⑥②③口 |--②③|
口④口口 |④-⑤-|
口口⑤口 |⑥-⑦-|
74
②口口① |①---|
④口口④ |②---|
③口口③ |③-④-|
①⑤⑤② |--⑤-|
75
口②口口 |--①-|
口①①口 |--②-|
口④③口 |--③-|
口口口口 |④---|
76
③口⑤① |①-②-|
⑧口口⑧ |③-④-|
⑦口口⑦ |⑤-⑥-|
④口⑥② |⑦-⑧-|
77
①①⑦口 |--①-|
口③②口 |--②③|
口口④⑥ |④-⑤-|
口⑤口口 |⑥-⑦-|
78
①⑤口③ |①-②-|
⑧口口⑧ |③-④-|
⑦口口⑦ |⑤-⑥-|
②⑥口④ |⑦-⑧-|
79
口⑥①① |--①-|
口②③口 |--②③|
⑦④口口 |④-⑤-|
口口⑤口 |⑥-⑦-|
80
③口⑤① |①-②-|
⑧口口⑧ |③-④-|
⑦口口⑦ |⑤-⑥-|
④口⑥② |⑦-⑧-|
81
①①⑦口 |--①-|
口③②口 |--②③|
口口④⑥ |④-⑤-|
口⑤口口 |⑥-⑦-|
82
①口口② |①---|
口④④口 |②---|
口③③口 |③-④-|
②⑤⑤① |--⑤-|
83
口②②口 |--①-|
①口口① |--②-|
③口口③ |--③-|
④口口④ |④---|
84
口口口口 |①---|
|----|
口 |----|
口 |----|
85
口口口口 |----|
口口口口 |----|
口口口口 |----|
口口口口 |----|
86
口口口口 |①---|
口 |----|
口 |----|
口口口口 |----|

不確定度: 0

最終更新:2017年01月04日 15:46