夢有
Des-ROW・組

BASIC

Level: 3
BPM: 144-170
Notes: 255

BPM: 145
1
口口口口 |----|
口口口口 |----|
口口口口 |----|
口口口口 |----|
2
口口口口 |①---|
口口③口 |----|
①②口口 |②---|
口口口口 |--③-|
3
口口口口 |----|
口口口口 |----|
口口口口 |----|
口口口口 |----|
4
口口口口 |①---|
口③口口 |----|
口口②① |②---|
口口口口 |--③-|
5
口口口口 |----|
口口口口 |----|
口口口口 |----|
口口口口 |----|
6
口口口口 |①---|
口口③口 |----|
①②口口 |②---|
口口口口 |--③-|
7
口口口口 |----|
口口口口 |----|
口口口口 |----|
口口口口 |----|
8
口口口口 |①---|
口③口口 |----|
口口②① |②---|
口口口口 |--③-|
9
口口口口 |----|
口口口口 |----|
口口口口 |----|
口口口口 |----|
10
口口口口 |①---|
①②③④ |②---|
口口口口 |③---|
口口口口 |④---|
11
口①①口 |①---|
口②②口 |②---|
口③③口 |③---|
口口口口 |----|
12
口口口口 |①---|
口口口口 |②---|
④③②① |③---|
口口口口 |④---|
13
口口口口 |①---|
口③③口 |②---|
口②②口 |③---|
口①①口 |----|
14
①②③④ |①---|
口口口口 |②---|
口口口口 |③---|
口口口口 |④---|
15
口口口口 |①---|
口①①口 |②---|
口②②口 |③---|
口③③口 |----|
16
口口口口 |①---|
口口口口 |②---|
口口口口 |③---|
④③②① |④---|
17
口③③口 |①---|
口②②口 |②---|
口①①口 |③---|
口口口口 |----|
18
②口口① |①---|
②口口① |----|
口口口口 |②---|
口口口口 |----|
19
口口口口 |①---|
口②①口 |②---|
口口③口 |③---|
口口口口 |----|
20
口口口口 |①---|
口口口口 |②---|
口②口④ |③---|
①口③口 |④---|
21
口口口口 |①---|
口口口口 |②---|
口口②口 |③---|
口③口① |----|
22
口口口口 |①---|
①口口② |----|
①口口② |②---|
口口口口 |----|
23
口口口口 |①---|
口口口口 |②---|
口②①口 |③---|
口口③口 |----|
24
口口口口 |①---|
④口②口 |②---|
口③口① |③---|
口口口口 |④---|
25
口①①口 |①---|
口②②口 |----|
口口口口 |②---|
口口口口 |----|
26
①①②② |①---|
口口口口 |----|
口口口口 |②---|
口口口口 |----|
27
口口口口 |①---|
口①①口 |----|
口口口口 |----|
口口口口 |----|
28
口口口口 |①---|
口口口口 |----|
口①①口 |----|
口口口口 |----|
29
口口口口 |----|
口口口口 |----|
口口口口 |----|
口口口口 |----|
30
口口口口 |①---|
口口口口 |----|
口口口口 |②---|
②②①① |----|
31
口口口口 |①---|
口口口口 |----|
口①①口 |----|
口口口口 |----|
32
口口口口 |①---|
口①①口 |----|
口口口口 |----|
口口口口 |----|
33
口口口口 |①---|
①口口① |----|
②口口② |②---|
口口口口 |----|
34
①①②② |①---|
口口口口 |----|
口口口口 |②---|
口口口口 |----|
35
口口口口 |①---|
口①①口 |----|
口口口口 |----|
口口口口 |----|
36
口口口口 |①---|
口口口口 |----|
口①①口 |----|
口口口口 |----|
37
口口口口 |----|
口口口口 |----|
口口口口 |----|
口口口口 |----|
38
口口口口 |①---|
口口口口 |----|
口口口口 |②---|
②②①① |----|
39
口口口口 |①---|
口口口口 |----|
口①①口 |----|
口口口口 |----|
40
口口口口 |①---|
口①①口 |----|
口口口口 |----|
口口口口 |----|
41
口口口口 |①---|
①口口① |----|
②口口② |②---|
口口口口 |----|
42
口口口口 |①---|
口口口口 |----|
口②口口 |②---|
口①口口 |----|
43
口②口口 |①---|
口①口口 |----|
口口口口 |②---|
口口口口 |----|
44
口口①口 |①---|
口口②口 |----|
口口口口 |②---|
口口口口 |----|
45
口口口口 |①---|
口口口口 |----|
口口①口 |②---|
口口②口 |----|

BPM: 144.85
46
口口口口 |①---|
口口口口 |----|
口口②① |②---|
口口口口 |----|
47
口口口口 |①---|
口口口口 |----|
②①口口 |②---|
口口口口 |----|

BPM: 150
48
口口口口 |①---|
①②口口 |----|
口口口口 |②---|
口口口口 |----|
49
口口口口 |①---|
口口①② |----|
口口口口 |②---|
口口口口 |----|

BPM: 155
50
口口口口 |①---|
口口口口 |----|
口口②① |②---|
口口口口 |----|
51
口口口口 |①---|
口口口口 |----|
②①口口 |②---|
口口口口 |----|

BPM: 160
52
口口口口 |①---|
①②口口 |----|
口口口口 |②---|
口口口口 |----|
53
口口口口 |①---|
口口①② |----|
口口口口 |②---|
口口口口 |----|

BPM: 165
54
口口口口 |①---|
口口口口 |----|
口①①口 |----|
口口口口 |----|

BPM: 170
55
②④口口 |①---|
口口口口 |②---|
①③口口 |③---|
口口口口 |④---|
56
口口①① |①---|
口口②② |②---|
口口③③ |③---|
口口口口 |----|
57
口口口口 |①---|
②④口口 |②---|
口口口口 |③---|
①③口口 |④---|
58
口口口口 |①---|
口口③③ |②---|
口口②② |③---|
口口①① |----|
59
口口③① |①---|
口口口口 |②---|
口口④② |③---|
口口口口 |④---|
60
①①口口 |①---|
②②口口 |②---|
③③口口 |③---|
口口口口 |----|
61
口口口口 |①---|
口口④② |②---|
口口口口 |③---|
口口③① |④---|
62
口口口口 |①---|
口口口口 |----|
口口口口 |----|
①①口口 |----|
63
口④④口 |①---|
口③③口 |②---|
口②②口 |③---|
口①①口 |④---|
64
①口口① |①---|
②口口② |②---|
③口口③ |③---|
口口口口 |----|
65
②②①① |①---|
④④③③ |②---|
口口口口 |③---|
口口口口 |④---|
66
口口口口 |①---|
口口口口 |②---|
②②①① |③---|
口口③③ |----|
67
口口口口 |①---|
①②③④ |②---|
①②③④ |③---|
口口口口 |④---|
68
口①①口 |①---|
口②②口 |②---|
口③③口 |③---|
口口口口 |----|
69
口口口口 |①---|
口口口口 |②---|
③③④④ |③---|
①①②② |④---|
70
口②②口 |①---|
口①①口 |----|
口口口口 |②---|
口口口口 |----|
71
①口口② |①---|
口口口口 |----|
口口口口 |----|
口口口口 |②---|
72
口口口口 |----|
口①②口 |----|
口口口口 |①---|
口口口口 |②---|
73
口口口口 |①---|
②口口① |----|
口口口口 |----|
口口口口 |②---|
74
口口口口 |----|
口口口口 |----|
口②①口 |①---|
口口口口 |②---|
75
口口口口 |①---|
口口口口 |----|
①口口② |----|
口口口口 |②---|
76
口口口口 |----|
口口口口 |----|
口口口口 |①---|
口①②口 |②---|
77
③口口③ |①---|
②口口② |--②-|
①口口① |----|
口口口口 |③---|

不確定度: 0

最終更新:2016年12月18日 23:44