夢有
Des-ROW・組

ADVANCED

Level: 6
BPM: 144-170
Notes: 505

BPM: 145
1
口口口口 |----|
口口口口 |----|
口口口口 |----|
口口口口 |----|
2
④④③③ |①---|
口口口口 |②---|
口②口口 |③---|
口口①口 |--④-|
3
口口口口 |----|
口口口口 |----|
口口口口 |----|
口口口口 |----|
4
③③④④ |①---|
口口口口 |②---|
口口②口 |③---|
口①口口 |--④-|
5
口口口口 |----|
口口口口 |----|
口口口口 |----|
口口口口 |----|
6
④④③③ |①---|
口口口口 |②---|
口②口口 |③---|
口口①口 |--④-|
7
口口口口 |----|
口口口口 |----|
口口口口 |----|
口口口口 |----|
8
③③④④ |①---|
口口口口 |②---|
口口②口 |③---|
口①口口 |--④-|
9
口口口口 |----|
口口口口 |----|
口口口口 |----|
口口口口 |----|
10
口口口口 |①---|
②④口口 |②---|
口口口口 |③---|
①③口口 |④---|
11
⑥⑥⑤⑤ |①-②-|
口口口口 |③-④-|
口②①口 |⑤-⑥-|
口④③口 |----|
12
口口口口 |①---|
口②口① |②---|
口④口③ |③---|
口口口口 |④---|
13
⑥口口⑤ |①-②-|
口⑥⑤口 |③-④-|
口口口口 |⑤-⑥-|
④②①③ |----|
14
口口口口 |①---|
口口口口 |②---|
④③②① |③---|
口口口口 |④---|
15
⑥口口⑤ |①-②-|
⑥②①⑤ |③-④-|
口口口口 |⑤-⑥-|
口④③口 |----|
16
口口口口 |①---|
口④②口 |②---|
口③①口 |③---|
口口口口 |④---|
17
⑥⑥⑤⑤ |①-②-|
口口口口 |③-④-|
④口口③ |⑤-⑥-|
②口⑦① |--⑦-|
18
口⑥口口 |①-②-|
口⑤②口 |--③-|
口①④口 |④-⑤-|
口③口口 |--⑥-|
19
口口口口 |①-②-|
口口②① |③-④-|
③④口口 |⑤---|
口⑤⑤口 |----|
20
口口口口 |①-②-|
③⑧⑥① |③-④-|
⑦④②⑤ |⑤-⑥-|
口口口口 |⑦-⑧-|
21
②口口① |①-②-|
口⑤⑤口 |③-④-|
口口口口 |⑤---|
④口⑥③ |--⑥-|
22
⑦口口⑥ |①-②-|
口⑤②口 |--③-|
口①④口 |④-⑤-|
口③口口 |⑥-⑦-|
23
口口口口 |①-②-|
口口②① |③-④-|
③④口⑥ |⑤---|
口⑤⑤口 |--⑥-|
24
口口口口 |①-②-|
②④⑥⑧ |③-④-|
①③⑤⑦ |⑤-⑥-|
口口口口 |⑦-⑧-|
25
口口口口 |①---|
口口口口 |--②-|
②口口②
口①①口

口口口口
③口口③
口口口口 |③---|
口④④口 |④---|
26
口①①口 |①---|
口③②② |----|
②②④口 |②---|
口口口口 |③-④-|
27
口口①口 |----|
口口口① |----|
①口口口 |----|
口①口口 |①---|
28
口①口口 |①---|
①口口口 |----|
口口口① |----|
口口①口 |----|
29
口口口口 |----|
口口③③ |----|
②②口口 |--①-|
口口①① |②-③-|
30
①①口口 |①---|
口③②② |----|
②②④口 |②---|
口口口口 |③-④-|
31
口口①口 |----|
口口口① |----|
①口口口 |----|
口①口口 |①---|
32
口①口口 |①---|
①②②口 |----|
口②②① |----|
口口①口 |②---|
33
口①①口 |①---|
①口⑤① |----|
②④③② |②-③-|
口②②口 |④-⑤-|
34
②②口口 |①---|
口①③口 |----|
口④口口 |②---|
口口②② |③-④-|
35
口口①口 |----|
①口口口 |----|
口口口① |----|
口①口口 |①---|
36
口①口口 |①---|
口口口① |----|
①口口口 |----|
口口①口 |----|
37
口口口口 |----|
口口③③ |----|
②②口口 |--①-|
口口①① |②-③-|
38
①①②② |①---|
口③口口 |----|
口口④口 |②---|
②②口口 |③-④-|
39
口口①口 |----|
①口口口 |----|
口口口① |----|
口①口口 |①---|
40
口①口口 |①---|
口②②① |----|
①②②口 |----|
口口①口 |②---|
41
口①①口 |①---|
①口口① |----|
②口口② |②---|
口②②口 |----|
42
口口口口 |①---|
口①①口 |----|
口①①口 |----|
口口口口 |----|
43
口口口口 |----|
口口口口 |----|
口口口口 |----|
口口口口 |----|
44
口口口口 |①---|
口口口口 |②---|
口口口口 |③---|
①②③④ |④---|
45
口口口口 |①---|
口口口口 |②---|
①②③④ |③---|
口口口口 |④---|

BPM: 144.85
46
①④③② |①-②-|
①④⑥⑤ |③-④-|
口⑦⑧口 |⑤-⑥-|
口⑦⑧口 |⑦-⑧-|
47
①口③② |①-②-|
①口口口 |③---|
口口口口 |----|
口口口口 |----|

BPM: 150
48
口⑧⑦口 |①-②-|
口⑧⑦口 |③-④-|
⑤⑥④① |⑤-⑥-|
②③④① |⑦-⑧-|
49
口口口口 |①-②-|
口口口口 |③---|
口口口① |----|
②③口① |----|

BPM: 155
50
①④③② |①-②-|
①④⑥⑤ |③-④-|
口⑦⑧口 |⑤-⑥-|
口⑦⑧口 |⑦-⑧-|
51
①口③② |①-②-|
①口口口 |③---|
口口口口 |----|
口口口口 |----|

BPM: 160
52
口⑧⑦口 |①-②-|
口⑧⑦口 |③-④-|
⑤⑥④① |⑤-⑥-|
②③④① |⑦-⑧-|
53
口口⑧口 |①-②-|
口⑦⑥口 |③-④-|
口⑤④① |⑤-⑥-|
②③口① |⑦-⑧-|

BPM: 165
54
①口口① |①---|
口口口口 |----|
口口口口 |----|
口口口口 |----|

BPM: 170
55
④④①① |①---|
②②③③ |②---|
③③②② |③---|
①①④④ |④---|
56
⑤口口⑤ |①-②-|
②④口口 |③-④-|
口口③① |⑤---|
口口口口 |----|
57
③③口口 |①-②-|
④④⑥⑤ |③-④-|
⑧⑧②① |⑤-⑥-|
⑦⑦口口 |⑦-⑧-|
58
④③②① |①-②-|
口⑤⑤口 |③-④-|
口口口口 |⑤---|
口口口口 |----|
59
口口口口 |①-②-|
口口口口 |③-④-|
⑤⑧④① |⑤-⑥-|
⑦⑥②③ |⑦-⑧-|
60
口④④口 |①---|
①③口① |②-③-|
口口②口 |④---|
口⑤口口 |--⑤-|
61
口④⑤口 |①-②-|
口⑥③口 |③-④-|
口②⑦口 |⑤-⑥-|
口⑧①口 |⑦-⑧-|
62
①口口① |①---|
口口口口 |----|
口口口口 |----|
口口口口 |----|
63
④④①① |①---|
②②③③ |②---|
③③②② |③---|
①①④④ |④---|
64
⑤⑤⑤⑤ |①-②-|
②④口口 |③-④-|
口口③① |⑤---|
口口口口 |----|
65
③③口口 |①-②-|
④④⑥⑤ |③-④-|
⑧⑧②① |⑤-⑥-|
⑦⑦口口 |⑦-⑧-|
66
④③②① |①-②-|
⑤⑤⑤⑤ |③-④-|
口口口口 |⑤---|
口口口口 |----|
67
口口口口 |①-②-|
口口口口 |③-④-|
⑤⑧④① |⑤-⑥-|
⑦⑥②③ |⑦-⑧-|
68
④④④④ |①---|
①③口① |②-③-|
口口②口 |④---|
口⑤口口 |--⑤-|
69
口④⑤口 |①-②-|
口⑥③口 |③-④-|
口②⑦口 |⑤-⑥-|
口⑧①口 |⑦-⑧-|
70
①②②① |①---|
①②②① |----|
口口口口 |②---|
口口口口 |----|
71
②口口① |①---|
口口口口 |--②-|
口口口口
①口口②

口口口③
口口口口
口口口口 |----|
③口口口 |③---|
72
①口口口 |--①-|
口③②口 |----|
口②③口 |②---|
口口口① |③---|
73
②口口① |①---|
口口口③ |--②-|
②口口① |----|
口口口③ |③---|
74
口口口口 |--①-|
①③②口 |----|
口③②口 |②---|
①口口口 |③---|
75
口②③口 |①---|
②口口③ |--②-|
口口口① |----|
口口①口 |③---|
76
口口口口 |--①-|
口③③口 |----|
①②②口 |②---|
口①口口 |③---|
77
①①①① |①---|
口③③口 |--②-|
口③③口 |----|
②②②② |③---|

不確定度: 0

最終更新:2016年12月18日 23:44