夢有
Des-ROW・組

EXTREME

Level: 8
BPM: 144-170
Notes: 777

BPM: 145
1
口口口口 |----|
口口口口 |----|
口口口口 |----|
口口口口 |----|
2
①⑤口口 |①---|
口口④口 |②-③-|
①口⑥口 |④---|
口③②口 |⑤-⑥-|
3
口口口口 |--①-|
口口口口 |②---|
口口④③ |③-④-|
①②口口 |----|
4
口⑤⑥口 |①-②-|
口①口④ |③-④-|
口⑦口口 |⑤---|
③口②口 |⑥-⑦-|
5
口口口口 |--①-|
口口口口 |②---|
③④口口 |③-④-|
口口②① |----|
6
④口口口 |①-②-|
口③口口 |③-④-|
口口②口
口口口①

口口⑥口
口⑦口⑤
口口口口 |⑤---|
口口口口 |⑥-⑦-|
7
口口口口 |①-②-|
⑤口口口 |③---|
⑤口①④ |④-⑤-|
②③口口 |----|
8
口口口口 |①-②-|
口②①口 |③-④-|
口④③口
口口口口

口⑥⑤口
口口⑦口
口口口口 |⑤---|
口口口口 |⑥-⑦-|
9
口口口口 |①-②-|
口口口⑤ |③---|
④①口⑤ |④-⑤-|
口口③② |----|
10
口①⑤口 |①-②-|
①⑦⑥⑤ |③-④-|
口④⑧口 |⑤-⑥-|
③口口② |⑦-⑧-|
11
②⑩⑨① |①②③④|
⑩口⑤⑨ |⑤⑥⑦⑧|
④⑥口③ |⑨-⑩-|
口⑧⑦口 |----|
12
⑤⑦③① |①-②-|
口口口口 |③-④-|
⑤⑦③① |⑤-⑥-|
④②⑥⑧ |⑦-⑧-|
13
口口⑨② |①-②③|
口③⑥⑨ |④⑤⑥⑦|
口⑦④① |⑧-⑨-|
⑤口⑧口 |----|
14
口口口口 |①-②-|
①①③③ |③-④-|
口口口口
②口口④

⑤⑤⑧⑧
口⑦⑩口
口⑨⑥口 |⑤-⑥⑦|
口口口口 |⑧-⑨⑩|
15
⑨⑨⑩⑩ |①②③④|
①口口② |⑤⑥⑦⑧|
③口口④ |⑨-⑩-|
⑤⑦⑧⑥ |----|
16
口口口口 |①-②-|
①口口② |③-④-|
③①②④
口③④口

⑪口口⑩
口⑨⑥口
口⑦⑧口 |⑤-⑥⑦|
⑤口口⑤ |⑧⑨⑩⑪|
17
⑨⑦口⑧ |①-②-|
⑤⑥④③ |③④⑤⑥|
②口⑦① |⑦-⑧-|
⑧②①⑨ |--⑨-|
18
口口口③ |①-②-|
口口①口 |--③-|
口①口②
③口②口

口口口口
口④⑥口
⑤⑥④口 |④-⑤-|
口⑤口口 |--⑥-|
19
③口口① |①-②-|
①⑤⑤③ |③-④-|
④⑤⑤② |⑤---|
②口口④ |----|
20
⑤⑤①① |①-②-|
⑦⑦③③ |③-④-|
⑥口口② |⑤-⑥-|
口⑧④口 |⑦-⑧-|
21
口②②口 |①-②-|
④口口④ |③-④-|
口①①口
③口口③

口口口⑥
口⑤⑤口
⑤口⑥⑤ |⑤---|
口口口口 |--⑥-|
22
①②②口 |①-②-|
③口口④ |--③-|
⑥①⑤口 |④-⑤-|
⑦③④口 |⑥-⑦-|
23
③③口口 |①-②-|
①①口口 |③-④-|
口②口口
口口④④

⑥口⑤⑥
口口口⑤
⑤口口口 |⑤---|
口⑤口口 |--⑥-|
24
⑥①口口 |①-②-|
⑤②①④ |③-④-|
口③②口 |⑤-⑥-|
⑦口③⑧ |⑦-⑧-|
25
口③口② |①-②-|
口①④① |③-④-|
①口①口
口口口口

口口口口
口口口口
⑦⑤口⑦ |⑤-⑥-|
⑦口⑥⑦ |⑦---|
26
①①①① |①---|
③⑤口② |②---|
③口③口 |③---|
④④口④ |④-⑤-|
27
口口口① |①---|
口口②口 |②-③-|
③③③③ |----|
④④④口 |④---|
28
①①①口 |①---|
口口口② |②---|
口口③口 |③---|
口口口④ |④---|
29
口口口① |①---|
口④②口 |②---|
口⑤口③ |③-④-|
口⑥口口 |⑤-⑥-|
30
①①①① |①---|
③⑤口② |②---|
③口③口 |③---|
④④口④ |④-⑤-|
31
口口口① |①---|
口口②口 |②-③-|
③③③③ |----|
④④④口 |④---|
32
①①①口 |①---|
口口口② |②---|
口口③口 |③---|
④④口④ |④---|
33
口口口口 |①-②-|
口口口口 |③-④-|
①②③④
口口口口

⑥⑥口口
口⑤⑦⑦
⑧⑧口口 |⑤-⑥-|
口口口口 |⑦-⑧-|
34
口口口口 |①---|
口口口口 |②---|
口口口②
①①①①

④④口④
③口③口
口③口口 |③---|
口⑤口口 |④-⑤-|
35
⑤⑤⑤口 |①---|
④口口③ |②---|
口口②口 |③-④-|
口口口① |⑤---|
36
口口口④ |①---|
口口③口 |②---|
口口口② |③---|
口①①口 |④---|
37
口④口口 |①---|
口⑤口③ |②---|
口⑥②口 |③-④-|
口口口① |⑤-⑥-|
38
口口口口 |①---|
②口口② |②---|
②口口②
①①①①

③③口④
口口③口
口⑤口口 |③---|
④④口口 |④-⑤-|
39
口口④口 |①---|
口口口③ |②---|
口口②口 |③---|
④④口① |④---|
40
口口④④ |①---|
①①③③ |②---|
④口②② |③---|
④口①① |④---|
41
口口口口 |①-②-|
口④口口 |③-④-|
口口③口
口②①①

口口⑦⑦
口口⑤⑤
⑥⑥口口 |⑤-⑥-|
⑧⑧口口 |⑦-⑧-|
42
④①口⑦ |①-②-|
①②口口 |③-④-|
口⑧③① |⑤-⑥-|
⑥口①⑤ |⑦-⑧-|
43
③②③口 |①-②-|
口③①③ |③---|
口口口口
口口口口

口口口口
④口⑥口
⑤口⑦口 |④-⑤-|
口口口口 |⑥-⑦-|
44
口口口② |①---|
口①口① |②-③-|
口①口①
③口口口

口口口口
口⑤口⑥
⑦口④口 |④-⑤-|
口口口口 |⑥-⑦-|
45
⑥②口口 |①-②-|
口口③⑦ |③-④-|
⑧④口口 |⑤-⑥-|
口口①⑤ |⑦-⑧-|

BPM: 144.85
46
口口口口 |①-②③|
口口①口 |④-⑤-|
口口⑤⑤
②③④口

⑩⑩⑨⑨
⑥⑦⑧口
口口口口 |⑥⑦⑧-|
口口口口 |⑨-⑩-|
47
口口口口 |①-②③|
⑤⑥口口 |④---|
口口口① |⑤-⑥-|
②③④口 |----|

BPM: 150
48
⑥⑨⑤② |①-②③|
⑨⑦③⑤ |④-⑤-|
口④⑧⑩ |⑥⑦⑧-|
①口⑩口 |⑨-⑩-|
49
口口⑤② |①-②③|
⑥⑦③⑤ |④-⑤-|
口④口口 |⑥-⑦-|
①口口⑧ |⑧---|

BPM: 155
50
口口口① |①-②③|
口口口口 |④-⑤-|
口口⑤⑤
②③④口

⑩⑩⑨⑨
⑥⑦⑧口
口口口口 |⑥⑦⑧-|
口口口口 |⑨-⑩-|
51
口口口口 |①-②③|
⑥⑦口① |④-⑤-|
口口⑤⑤ |⑥-⑦-|
②③④⑧ |--⑧-|

BPM: 160
52
⑥⑨⑤② |①-②③|
⑨⑦③⑤ |④-⑤-|
口④⑧⑩ |⑥⑦⑧-|
①口⑩口 |⑨-⑩-|
53
⑧⑨⑤② |①-②③|
⑥⑦③⑤ |④-⑤-|
口④口口 |⑥-⑦-|
①口口口 |⑧-⑨-|

BPM: 165
54
口口口口 |①---|
口口口口 |----|
口①①口 |----|
口口口口 |----|

BPM: 170
55
口⑥①⑤ |①-②-|
④口⑦① |③-④-|
口②⑦⑤ |⑤-⑥-|
⑧口③③ |⑦-⑧-|
56
⑤口③⑤ |①-②-|
④口⑥③ |③-④-|
⑤②口⑤ |⑤---|
口口①① |⑥---|
57
③③②口 |①-②-|
⑦⑤⑥口 |③-④-|
⑤①⑧④ |⑤-⑥-|
⑦①口口 |⑦-⑧-|
58
③③口② |①-②-|
口口口口 |③-④-|
口①口口
口①口④

口口口口
口⑤⑤口
⑤⑥口⑤ |⑤---|
口口口口 |⑥---|
59
口⑥③③ |①-②-|
④口⑤① |③-④-|
口⑧①⑦ |⑤-⑥-|
口②⑦⑤ |⑦-⑧-|
60
口口③③ |①-②-|
口口口① |③-④-|
④口①口
口②口口

口口口口
口⑤⑤口
口口⑥口 |⑤---|
⑤口⑦⑤ |⑥-⑦-|
61
①①④口 |①-②-|
⑦③口② |③-④-|
⑦⑤⑧口 |⑤-⑥-|
⑤③口⑥ |⑦-⑧-|
62
①①口口 |①---|
口口①① |----|
④③②口 |--②-|
口口口口 |③-④-|
63
口⑧⑦① |①-②-|
⑥②⑦口 |③-④-|
口⑤④① |⑤-⑥-|
⑤口③③ |⑦-⑧-|
64
③口口口 |①-②-|
⑤③⑤⑥ |③-④-|
口⑤④⑤ |⑤---|
口②①① |⑥---|
65
口口⑦③ |①-②-|
口④③⑦ |③-④-|
②⑥⑧⑤ |⑤-⑥-|
①①口⑤ |⑦-⑧-|
66
③⑤口⑤ |①-②-|
口⑥④口 |③-④-|
③⑤口⑤ |⑤---|
①①②口 |⑥---|
67
②⑤①口 |①-②-|
⑦⑧③① |③-④-|
⑦⑤③④ |⑤-⑥-|
口口口⑥ |⑦-⑧-|
68
②口①口 |①-②-|
口⑦④① |③-④-|
⑤⑤⑥口 |⑤---|
③③⑤⑤ |⑥-⑦-|
69
①①口口 |①-②-|
③口口② |③-④-|
口④口口
③口口口

口⑧口口
口⑥口口
口口⑦⑤ |⑤-⑥-|
口口⑦⑤ |⑦-⑧-|
70
②口口① |①---|
口②①口 |----|
①口口② |②---|
口①②口 |----|
71
⑦口⑥⑤ |①-②-|
①④③② |③-④-|
⑦口口口 |⑤-⑥-|
①④口⑧ |⑦-⑧-|
72
⑥②口⑤ |①-②-|
口口口口 |③-④-|
口②④③ |⑤---|
⑤口①⑥ |⑥---|
73
⑧口④④ |①-②-|
⑤⑥①① |③-④-|
②③口口 |⑤-⑥-|
口口⑦⑦ |⑦-⑧-|
74
口①口口 |①-②-|
口口口口 |③-④-|
口口②②
③④口口

⑥⑥口口
口口⑤⑤
⑤⑤口口 |⑤---|
口口⑥⑥ |⑥---|
75
⑦口⑥⑤ |①-②-|
①④口⑧ |③-④-|
⑦口③② |⑤-⑥-|
①④口口 |⑦-⑧-|
76
口②⑥口 |①-②-|
⑤口①口 |③-④-|
口②⑥口 |⑤---|
⑤口④③ |⑥---|
77
①口口① |①---|
②①①② |--②-|
②③③② |----|
③口口③ |③---|

不確定度: 0

最終更新:2016年12月18日 23:44