Bleep Beep Bop
kors k

ADVANCED

Level: 7
BPM: 175
Notes: 545

1
口口口口 |----|
口口口口 |----|
口口口口 |----|
口口口口 |----|
2
④口口口 |①---|
口口口① |②---|
口口②口 |③---|
口③口口 |④---|
3
口①①口 |①---|
口口口口 |②---|
②③④② |③-④-|
口⑤⑥口 |⑤-⑥-|
4
口口口口 |①---|
③②②④ |②---|
口口口口 |③-④-|
①⑤⑥① |⑤-⑥-|
5
口①①口 |①---|
口口口口 |②---|
②③④② |③-④-|
口⑤⑥口 |⑤-⑥-|
6
①口口④ |①-②-|
口②③口 |③-④-|
口⑤⑤口 |⑤---|
口口口口 |----|
7
口①①口 |①---|
口口口口 |②---|
②③④② |③-④-|
口⑤⑥口 |⑤-⑥-|
8
口口口口 |①---|
③②②④ |②---|
口口口口 |③-④-|
①⑤⑥① |⑤-⑥-|
9
①③③① |①---|
口口口口 |②---|
口②②口 |③---|
④口口④ |④---|
10
口口口口 |①-②-|
①口口② |③-④-|
③⑤⑥④ |⑤-⑥-|
口⑦⑧口 |⑦-⑧-|
11
①口口① |①-②-|
⑤口②⑥ |③-④-|
③口口④ |⑤-⑥-|
口⑦⑧口 |⑦-⑧-|
12
⑦口口⑧ |①-②-|
口⑤⑥口 |③-④-|
口③④口 |⑤-⑥-|
①口口② |⑦-⑧-|
13
口⑦⑧口 |①-②-|
③口口④ |③-④-|
口⑤⑥口 |⑤-⑥-|
口①②口 |⑦-⑧-|
14
①口口② |①-②-|
口③④口 |③-④-|
口⑤⑥口 |⑤-⑥-|
⑦口口⑧ |⑦-⑧-|
15
口⑤⑥口 |①-②-|
①口口② |③-④-|
③口口④ |⑤-⑥-|
口⑦⑧口 |⑦-⑧-|
16
⑦口口⑧ |①-②-|
口⑤⑥口 |③-④-|
口③④口 |⑤-⑥-|
①口口② |⑦-⑧-|
17
口①①口 |①---|
③口口③ |②---|
④口口④ |③---|
口②②口 |④---|
18
⑤⑤②口 |①-②-|
口③口口 |③-④-|
口口④口 |⑤---|
①口⑥⑥ |⑥---|
19
口口口口 |①---|
③口口口 |②---|
②口④④ |③-④-|
①口⑤⑤ |--⑤-|
20
口⑥③② |①-②-|
⑤口口口 |--③-|
口④口口 |④-⑤-|
①口口口 |⑥---|
21
口口口口 |①---|
③口口口 |②---|
②口④④ |③-④-|
①口⑤⑤ |--⑤-|
22
口口③② |①-②-|
口口⑤口 |--③-|
口④口口 |--④-|
①口口口 |⑤---|
23
口口口口 |①---|
③口口口 |②---|
②口④④ |③-④-|
①口⑤⑤ |--⑤-|
24
口⑥③② |①-②-|
⑤口口口 |--③-|
口④口口 |④-⑤-|
①口口口 |⑥---|
25
口口口口 |①---|
口口④口 |②---|
①③口口 |③---|
①口②口 |④---|
26
①口口① |①---|
③口口④ |②---|
口③④口 |--③-|
②口口② |④---|
27
口①②③ |①-②-|
口口口口 |③---|
口口口口 |④-⑤-|
⑥⑤④口 |⑥---|
28
⑤口口口 |①-②-|
口①②口 |③-④-|
口③④口 |⑤---|
口口口⑥ |⑥---|
29
口口口① |①---|
口③④口 |②---|
口⑤⑥口 |③-④-|
②口口口 |⑤-⑥-|
30
①口口② |①-②-|
口⑦口口 |③-④-|
⑥口口口 |⑤-⑥-|
③⑤口④ |⑦---|
31
口①②③ |①-②-|
口口口口 |③---|
口口口口 |④-⑤-|
⑥⑤④口 |⑥---|
32
⑤口口口 |①-②-|
口①②口 |③-④-|
口③④口 |⑤---|
口口口⑥ |⑥---|
33
口口①① |①---|
口口口口 |----|
口口口口 |②---|
②②口口 |----|
34
①口口② |①-②-|
口③④口 |③-④-|
⑤口口⑥ |⑤-⑥-|
口⑦⑧口 |⑦-⑧-|
35
①①口② |①-②-|
口口口③ |--③-|
口口口④ |--④-|
口口口⑤ |--⑤-|
36
口口①口 |--①-|
口⑤②口 |--②-|
口口④口 |③-④-|
口③口口 |⑤---|
37
①口口口 |--①-|
②口口口 |--②-|
③口口口 |--③-|
④口口口 |--④-|
38
口①口口 |--①-|
口②⑤口 |--②-|
口④口口 |③-④-|
口口③口 |⑤---|
39
口口口口 |----|
口口口口 |----|
口口口口 |----|
口①①口 |①---|
40
①①①① |①---|
口口②口 |②---|
口③④口 |③---|
口口口口 |④---|
41
⑦口口⑧ |①-②-|
⑤口口⑥ |③-④-|
③口口④ |⑤-⑥-|
①口口② |⑦-⑧-|
42
口⑤⑤口 |①---|
口①①口 |②---|
④②②④ |③-④-|
③口口③ |⑤---|
43
①口口① |①-②-|
口②口口 |③-④-|
口口③口 |----|
口口⑤④ |--⑤-|
44
口口口③ |①-②-|
②口④口 |③-④-|
口①口口 |----|
口口口⑤ |--⑤-|
45
口口①④ |①---|
口口口口 |②-③-|
口②③口 |--④-|
口口⑤口 |--⑤-|
46
口口⑦口 |--①-|
⑤口④口 |--②③|
口③口⑥ |④-⑤-|
②①口口 |⑥-⑦-|
47
①口口口 |①-②-|
口②口口 |③-④-|
口口③口 |----|
口口⑤④ |--⑤-|
48
⑥口口③ |①-②-|
②口④口 |③-④-|
口①口口 |----|
口⑤口口 |⑤-⑥-|
49
口口口口 |----|
口口口① |①---|
②口口口 |②---|
口④③口 |③-④-|
50
②口口口 |----|
口口口③ |--①-|
④口①口 |②-③-|
口口口⑤ |④-⑤-|
51
口口口② |①-②-|
口口③口 |--③-|
口口口④ |--④-|
①口⑤口 |--⑤-|
52
口口①口 |--①-|
口⑤口② |--②-|
口④口口 |③-④-|
口③口口 |⑤---|
53
口口④口 |--①-|
口口口③ |--②-|
口口②口 |--③-|
口口口① |--④-|
54
④口口① |--①-|
口口②口 |--②-|
③口口口 |--③-|
口口口口 |④---|
55
口口口① |--①-|
口口②口 |--②-|
口口口③ |--③-|
口口④口 |--④-|
56
①口口口 |--①-|
口②口口 |--②-|
③口口口 |--③-|
口④口口 |--④-|
57
口⑧⑦口 |①-②-|
⑥口口⑤ |③-④-|
口④③口 |⑤-⑥-|
②口口① |⑦-⑧-|
58
口口口① |①---|
口②③口 |----|
口口口口 |②---|
口②③口 |③---|
59
①②口① |①---|
②口口口 |②---|
口①①口
口口口口

口口③⑤
口口⑤③
口口口口 |③---|
④口口口 |④-⑤-|
60
①③④口 |--①-|
口①口口 |②---|
口③④口 |③---|
口口口② |④---|
61
③口⑤③ |①---|
口口口口 |②---|
①口⑤② |③---|
④①②口 |④-⑤-|
62
口①口口 |--①-|
③口口⑥ |②---|
口①口口 |③-④-|
口⑤④② |⑤-⑥-|
63
口⑥口④ |①---|
⑥口③口 |②-③-|
①口口② |④---|
①口口⑤ |⑤-⑥-|
64
口口①口 |--①-|
口④③① |②---|
口④③口 |③---|
②口口口 |④---|
65
②⑤口① |①---|
⑤口口口 |②---|
②口口① |③---|
③口④③ |④-⑤-|
66
口口①口 |--①-|
口④④① |②---|
口口口口 |③---|
③②口③ |④---|
67
①②口① |①---|
②口口口 |②---|
口①①口
口口口口

口口③⑤
口口⑤③
口口口口 |③---|
④口口口 |④-⑤-|
68
①③④口 |--①-|
口①口口 |②---|
口③④口 |③---|
口口口② |④---|
69
③口⑤③ |①---|
口口口口 |②---|
①口⑤② |③---|
④①②口 |④-⑤-|
70
口①口口 |--①-|
③口口⑥ |②---|
口①口口 |③-④-|
口⑤④② |⑤-⑥-|
71
口⑥口④ |①---|
⑥口③口 |②-③-|
①口口② |④---|
①口口⑤ |⑤-⑥-|
72
口口①口 |--①-|
口④③① |②---|
口④③口 |③---|
②口口口 |④---|
73
⑤③②口 |①---|
③口口② |②---|
口口口④ |③---|
口①①口 |④-⑤-|
74
口口口① |--①-|
③③③③ |②---|
②④④口 |③---|
④口口④ |④---|
75
口①②③ |①-②-|
口口口口 |③---|
口口口口 |④-⑤-|
⑥⑤④口 |⑥---|
76
⑤口口口 |①-②-|
口①②口 |③-④-|
口③④口 |⑤---|
口口口⑥ |⑥---|
77
口口口① |①---|
口③④口 |②---|
口⑤⑥口 |③-④-|
②口口口 |⑤-⑥-|
78
①口口② |①-②-|
口⑦口口 |③-④-|
⑥口口口 |⑤-⑥-|
③⑤口④ |⑦---|
79
口①②③ |①-②-|
口口口口 |③---|
口口口口 |④-⑤-|
⑥⑤④口 |⑥---|
80
⑤口口口 |①-②-|
口①②口 |③-④-|
口③④口 |⑤---|
口口口⑥ |⑥---|
81
口口①① |①---|
口口口口 |----|
口口口口 |②---|
②②口口 |----|
82
①口口② |①-②-|
口③④口 |③-④-|
⑤口口⑥ |⑤-⑥-|
口⑦⑧口 |⑦-⑧-|
83
口①①口 |①---|
口口口口 |----|
口①①口 |----|
口口口口 |----|

不確定度: 0

最終更新:2016年10月19日 14:27