Bleep Beep Bop
kors k

EXTREME

Level: 10
BPM: 175
Notes: 921

1
口口口口 |----|
口口口口 |----|
口口口口 |----|
口口口口 |----|
2
口口口口 |----|
口口口口 |----|
口口口口 |----|
口口口口 |----|
3
①①⑫⑤ |①-②③|
⑨⑬⑥⑩ |④-⑤⑥|
⑪⑦⑧② |⑦⑧⑨⑩|
④④③⑭ |⑪⑫⑬⑭|
4
①①⑪⑤ |①-②③|
⑦⑫⑥⑧ |④-⑤⑥|
⑩⑦⑨② |⑦-⑧⑨|
④④③⑬ |⑩⑪⑫⑬|
5
①①口⑤ |①-②③|
口口⑥口 |④-⑤⑥|
口口口②
④④③口

⑬口⑫口
⑨⑪口⑩
口⑦⑧⑭ |⑦⑧⑨⑩|
口口口口 |⑪⑫⑬⑭|
6
口①口口 |①-②-|
口口④口 |③-④-|
①口④口
③③②②

口口⑨⑤
⑥⑧口⑦
⑩⑤口口 |⑤-⑥⑦|
口口口⑪ |⑧⑨⑩⑪|
7
①①⑫⑤ |①-②③|
⑨⑬⑥⑩ |④-⑤⑥|
⑪⑦⑧② |⑦⑧⑨⑩|
④④③⑭ |⑪⑫⑬⑭|
8
①①⑪⑤ |①-②③|
⑦⑫⑥⑧ |④-⑤⑥|
⑩⑦⑨② |⑦-⑧⑨|
④④③⑬ |⑩⑪⑫⑬|
9
①①⑩口 |①-②③|
⑥⑪⑤口 |④-⑤⑥|
⑧⑨⑦② |⑦⑧--|
④④③口 |⑨-⑩⑪|
10
⑩⑪⑫① |①②③④|
⑨⑬⑭② |⑤⑥⑦⑧|
⑧⑭⑬③ |⑨⑩⑪⑫|
⑦⑥⑤④ |⑬-⑭-|
11
⑤口口① |①-②-|
⑦口口③ |③-④-|
⑧口口④ |⑤-⑥-|
⑥④口② |⑦-⑧-|
12
⑤④⑤① |①-②-|
⑦③口③ |③-④-|
⑧②口④ |⑤-⑥-|
⑥口⑦② |⑦-⑧-|
13
⑤口口① |①-②-|
⑦④①③ |③-④-|
⑧口口④ |⑤-⑥-|
⑥口口② |⑦-⑧-|
14
⑤口口① |①-②-|
⑦④⑦③ |③-④-|
⑧口③④ |⑤-⑥-|
⑥②⑤② |⑦-⑧-|
15
⑤①①① |①-②-|
⑦口口③ |③-④-|
⑧口口④ |⑤-⑥-|
⑥④口② |⑦-⑧-|
16
⑤④⑤① |①-②-|
⑦③口③ |③-④-|
⑧②口④ |⑤-⑥-|
⑥口⑦② |⑦-⑧-|
17
⑧口⑤① |①-②-|
口②③⑤ |③-④-|
口④①口 |⑤-⑥-|
口⑥⑦口 |⑦-⑧-|
18
口⑥⑦① |①②③④|
⑩④③⑨ |⑤⑥⑦⑧|
②⑩⑨口 |⑨---|
⑧⑨⑩⑤ |⑩---|
19
①口⑦① |①-②③|
口③④口 |④-⑤⑥|
②⑨⑧⑩ |⑦-⑧-|
⑤⑥⑩⑧ |⑨-⑩-|
20
④②⑦① |①-②-|
②④③⑦ |③-④-|
⑦⑥⑥口 |⑤-⑥-|
⑤⑦口⑤ |⑦---|
21
口口口口 |①-②③|
②③④口 |④-⑤⑥|
口⑥口①
⑤口口口

口口口⑦
口口口口
⑨口⑧⑩ |⑦-⑧-|
口口⑩⑧ |⑨-⑩-|
22
④②①口 |①-②-|
②④③口 |③-④-|
口⑤口⑥ |--⑤-|
口⑤口⑥ |⑥---|
23
口①⑦① |①-②③|
口③④口 |④-⑤⑥|
②⑨⑧⑩ |⑦-⑧-|
⑤⑥⑩⑧ |⑨-⑩-|
24
④②⑦① |①-②-|
②④③⑦ |③-④-|
⑦⑥⑥口 |⑤-⑥-|
⑤⑦口⑤ |⑦---|
25
⑧口⑩⑦ |①-②③|
②③④口 |④-⑤⑥|
口⑥口① |⑦-⑧-|
⑤⑨口口 |⑨-⑩-|
26
⑧①口⑦ |①-②③|
①④③② |④-⑤⑥|
⑧口口⑦ |--⑦-|
⑥口口⑤ |⑧---|
27
⑧①⑨⑥ |①-②③|
①⑩②⑪ |④-⑤-|
口③口口 |⑥-⑦-|
口⑤④⑦ |⑧⑨⑩⑪|
28
口④口⑤ |①-②-|
②⑦口口 |③-④-|
⑥③⑧口 |⑤-⑥-|
①口口⑨ |⑦⑧⑨-|
29
口④①口 |①-②③|
⑤⑫③② |-④⑤⑥|
⑧⑥⑪口 |⑦⑧⑨-|
⑦⑨口⑩ |⑩⑪⑫-|
30
⑧⑧⑩① |①-②③|
③⑩⑥④ |④⑤⑥⑦|
⑦⑤⑩② |⑧-⑨-|
⑨⑨口口 |⑩---|
31
⑥⑪⑩① |①-②③|
②口口口 |④-⑤-|
⑤③口① |⑥-⑦⑧|
⑦⑧④⑨ |⑨-⑩⑪|
32
⑦口口⑧ |①②③④|
⑨②①口 |⑤-⑥-|
⑥④③⑩ |⑦-⑧⑨|
⑪⑪⑤口 |⑩-⑪-|
33
④①①⑥ |①-②-|
⑧口口③ |③-④-|
口⑤⑤口 |⑤-⑥-|
⑦口口② |⑦-⑧-|
34
口②②口 |①--②|
口⑤④③ |----|
口⑤④③ |③-④-|
口①①口 |⑤---|
35
口口④② |①-②-|
⑧⑥口口 |③-④-|
⑦口口口 |⑤-⑥-|
口⑤③① |⑦-⑧-|
36
口口⑦② |①-②-|
口口④⑦ |③-④-|
⑦⑥⑥① |⑤-⑥-|
⑤⑦③⑤ |⑦---|
37
口⑥口② |①-②-|
⑧口④口 |③-④-|
口⑤口① |⑤-⑥-|
⑦口③口 |⑦-⑧-|
38
口⑧⑦② |①-②-|
口⑤④① |③-④-|
口⑤③⑥ |--⑤-|
口口口⑥ |⑥-⑦⑧|
39
①口口口 |①②③④|
②口⑧口 |⑤⑥⑦⑧|
③口⑦口
④⑤⑥口

口⑪⑩口
⑪⑨口⑩
口口口口 |⑨---|
口口口口 |⑩-⑪-|
40
⑥口口⑤ |①---|
口⑥③⑤ |②-③-|
①④口① |④-⑤-|
①④②① |⑥---|
41
口②①口 |①②③④|
⑥口⑤口 |⑤⑥⑦⑧|
口⑧⑦口
④口③口

⑭⑯⑮⑬
口口口口
⑫口口⑪ |⑨⑩⑪⑫|
口⑩口⑨ |⑬⑭⑮⑯|
42
⑩口口口 |①-②③|
⑪③②① |④⑤⑥⑦|
⑫⑤④⑨ |⑧-⑨-|
⑬⑦⑥⑧ |⑩⑪⑫⑬|
43
口③①① |①-②-|
口口口口 |③-④-|
口②口口 |----|
口⑤口④ |--⑤-|
44
口口③⑦ |①-②-|
口②口⑥ |③-④⑤|
①口口⑤ |⑥⑦--|
⑧口口④ |--⑧-|
45
①④②口 |①---|
口口⑤口 |②-③-|
口③口口 |--④-|
口口口口 |--⑤-|
46
④口口口 |--①-|
口③口⑤ |--②③|
⑥口②⑦ |④-⑤-|
口①口口 |⑥-⑦-|
47
口③口口 |①-②-|
口口①口 |③-④-|
口②口口 |----|
口⑤口④ |--⑤-|
48
⑨口③⑦ |①-②-|
口②口⑥ |③-④⑤|
①口口⑤ |⑥⑦--|
口⑧口④ |⑧-⑨-|
49
口口口口 |----|
③口口口 |①---|
口④①① |②---|
口口②② |③-④-|
50
口③口口 |----|
口口②④ |--①②|
⑤口口① |③-④-|
口口口⑥ |⑤-⑥-|
51
②口⑥⑧ |①-②-|
口④口口 |③-④-|
口口⑤⑦ |⑤-⑥-|
①③①口 |⑦-⑧-|
52
②④⑦口 |①-②-|
⑥⑦口⑤ |③-④-|
①口⑦口 |⑤-⑥-|
⑥③口⑤ |⑦---|
53
②④口⑧ |①-②-|
口口⑥口 |③-④-|
①口口口 |⑤-⑥-|
口③⑤⑦ |⑦-⑧-|
54
②口⑤口 |①-②-|
口④口⑤ |③-④-|
①⑥口口 |--⑤-|
⑥③口口 |⑥---|
55
②口⑥口 |①-②-|
口④口⑧ |③-④-|
①口⑤口 |⑤-⑥-|
口③口⑦ |⑦-⑧-|
56
②口⑥口 |①-②-|
口④口⑧ |③-④-|
①口⑤口 |⑤-⑥-|
口③口⑦ |⑦-⑧-|
57
①⑨⑫⑧ |①②③④|
⑬⑤④⑯ |⑤⑥⑦⑧|
⑪⑦⑩② |⑨⑩⑪⑫|
③⑮⑥⑭ |⑬⑭⑮⑯|
58
①⑥⑥③ |①-②-|
口⑤⑤口 |③-④-|
⑤④口⑤ |⑤---|
②⑥⑥口 |⑥---|
59
①⑧⑧③ |①-②-|
⑤⑦口① |③-④-|
⑦④②⑤ |⑤-⑥-|
③口⑥① |⑦-⑧-|
60
①口⑦⑤ |①-②-|
⑤⑥②② |③-④-|
⑦④⑦⑤ |⑤-⑥-|
③口口③ |⑦---|
61
①③口口 |①-②-|
口口①① |③-④-|
口③口口
③口④②

口口⑧⑤
⑤口口⑧
⑦口⑦口 |⑤-⑥-|
口⑥口口 |⑦-⑧-|
62
①⑦口④ |①-②-|
④②②口 |③---|
⑥口⑥口 |④-⑤-|
③⑤口③ |⑥-⑦-|
63
①口⑥④ |①---|
④口③⑥ |②-③-|
⑤口口① |④---|
②⑤①② |⑤-⑥-|
64
①④口④ |①-②-|
④③口口 |③---|
⑤口口② |④---|
③⑤②⑤ |⑤---|
65
①口②⑤ |①---|
③②口③ |②---|
④口③① |③---|
②④①口 |④-⑤-|
66
口④④口 |--①-|
口①③口 |②---|
口③口② |③---|
口④④口 |④---|
67
①⑧⑧③ |①-②-|
⑤⑦口① |③-④-|
⑦④②⑤ |⑤-⑥-|
③口⑥① |⑦-⑧-|
68
①口⑦⑤ |①-②-|
⑤⑥②② |③-④-|
⑦④⑦⑤ |⑤-⑥-|
③口口③ |⑦---|
69
①③口口 |①-②-|
口口①① |③-④-|
口③口口
③口④②

口口⑧⑤
⑤口口⑧
⑦口⑦口 |⑤-⑥-|
口⑥口口 |⑦-⑧-|
70
①⑦口④ |①-②-|
④②②口 |③---|
⑥口⑥口 |④-⑤-|
③⑤口③ |⑥-⑦-|
71
①口⑥④ |①---|
④口③⑥ |②-③-|
⑤口口① |④---|
②⑤①② |⑤-⑥-|
72
①④口④ |①-②-|
④③口口 |③---|
⑤口口② |④---|
③⑤②⑤ |⑤---|
73
①口③口 |①---|
③④⑤③ |②---|
④②②① |③---|
②口①口 |④-⑤-|
74
⑤①④④ |--①-|
口⑤口口 |②-③-|
口③⑤口 |④---|
④④②⑤ |⑤---|
75
⑧①⑨⑥ |①-②③|
①⑩②⑪ |④-⑤-|
口③口口 |⑥-⑦-|
口⑤④⑦ |⑧⑨⑩⑪|
76
口④口⑤ |①-②-|
②⑦口口 |③-④-|
⑥③⑧口 |⑤-⑥-|
①口口⑨ |⑦⑧⑨-|
77
口④①口 |①-②③|
⑤⑫③② |-④⑤⑥|
⑧⑥⑪口 |⑦⑧⑨-|
⑦⑨口⑩ |⑩⑪⑫-|
78
⑧⑧⑩① |①-②③|
③⑩⑥④ |④⑤⑥⑦|
⑦⑤⑩② |⑧-⑨-|
⑨⑨口口 |⑩---|
79
⑥⑪⑩① |①-②③|
②口口口 |④-⑤-|
⑤③口① |⑥-⑦⑧|
⑦⑧④⑨ |⑨-⑩⑪|
80
⑦口口⑧ |①②③④|
⑨②①口 |⑤-⑥-|
⑥④③⑩ |⑦-⑧⑨|
⑪⑪⑤口 |⑩-⑪-|
81
口②口口 |①-②-|
口③口口 |③-④-|
口④①口
口口口①

⑤口⑥口
⑤口⑦口
口口⑧口 |⑤-⑥-|
口口口口 |⑦-⑧-|
82
⑤②口⑥ |①-②-|
⑤③口⑥ |③-④-|
口④口① |⑤---|
口⑥⑤① |⑥---|
83
口①①口 |①---|
口口口口 |----|
①口口① |----|
口口口口 |----|

不確定度: 0

最終更新:2016年10月19日 14:27