眼光
猫大樹

BASIC

Level: 4
BPM: 165
Notes: 308

1
口口口口 |----|
口口口口 |----|
口口口口 |----|
口口口口 |----|
2
口口口口 |----|
口口口口 |----|
口口口口 |----|
口口口口 |----|
3
口口口口 |①---|
口口口口 |②---|
①②④③ |③---|
口口口口 |④---|
4
口口口口 |①---|
①②④③ |②---|
口口口口 |③---|
口口口口 |④---|
5
口口口口 |①---|
口口口口 |②---|
②①③④ |③---|
口口口口 |④---|
6
口口口口 |①---|
②①③④ |②---|
口口口口 |③---|
口口口口 |④---|
7
口口口口 |①---|
口口口口 |②---|
①②④③ |③---|
口口口口 |④---|
8
口口口口 |①---|
①②④③ |②---|
口口口口 |③---|
口口口口 |④---|
9
口口口口 |①---|
口口口口 |②---|
②①③④ |③---|
口口口口 |④---|
10
口口口口 |①---|
口①①口 |----|
口口口口 |----|
口口口口 |----|
11
口②口④ |①---|
①口③口 |②---|
口口口口 |③---|
口口口口 |④---|
12
④口②口 |①---|
口③口① |②---|
口口口口 |③---|
口口口口 |④---|
13
口口口口 |①---|
①口③口 |②---|
口②口④ |③---|
口口口口 |④---|
14
口口口口 |①---|
口③口① |②---|
④口②口 |③---|
口口口口 |④---|
15
口口口口 |①---|
口口口口 |②---|
口②口④ |③---|
①口③口 |④---|
16
口口口口 |①---|
口口口口 |②---|
④口②口 |③---|
口③口① |④---|
17
口口口口 |①---|
口①①口 |----|
口②②口 |②---|
口口口口 |----|
18
口口口口 |①---|
①口口① |----|
口口口口 |----|
口口口口 |----|
19
④口②口 |①---|
口③口① |②---|
口口口口 |③---|
口口口口 |④---|
20
口②口④ |①---|
①口③口 |②---|
口口口口 |③---|
口口口口 |④---|
21
口口口口 |①---|
口③口① |②---|
④口②口 |③---|
口口口口 |④---|
22
口口口口 |①---|
①口③口 |②---|
口②口④ |③---|
口口口口 |④---|
23
口口口口 |①---|
口口口口 |②---|
④口②口 |③---|
口③口① |④---|
24
口口口口 |①---|
口口口口 |②---|
口②口④ |③---|
①口③口 |④---|
25
口口口口 |①---|
口①①口 |----|
口②②口 |②---|
口口口口 |----|
26
口口口口 |①---|
①口口① |----|
口口口口 |----|
口口口口 |----|
27
口①③口 |①---|
口④②口 |②---|
口口口口 |③---|
口口口口 |④---|
28
口①③口 |①---|
口④②口 |②---|
口口口口 |③---|
口口口口 |④---|
29
①②口口 |①---|
口口③④ |②---|
口口口口 |③---|
口口口口 |④---|
30
口口②① |①---|
④③口口 |②---|
口口口口 |③---|
口口口口 |④---|
31
口①③口 |①---|
口④②口 |②---|
口口口口 |③---|
口口口口 |④---|
32
口①③口 |①---|
口④②口 |②---|
口口口口 |③---|
口口口口 |④---|
33
口口口口 |①---|
口口口口 |----|
②①①② |②---|
口口口口 |----|
34
口口口口 |①---|
②②②② |----|
口①①口 |②---|
口口口口 |----|
35
口①口口 |①---|
④口②④ |②---|
口③口口 |③---|
口口口口 |④---|
36
口口①口 |①---|
④②口④ |②---|
口口③口 |③---|
口口口口 |④---|
37
①口口口 |①---|
④②口④ |②---|
口口③口 |③---|
口口口口 |④---|
38
口口口① |①---|
④口②④ |②---|
口③口口 |③---|
口口口口 |④---|
39
①口口口 |①---|
④②口④ |②---|
③口口口 |③---|
口口口口 |④---|
40
口口口① |①---|
④口②④ |②---|
口口口③ |③---|
口口口口 |④---|
41
口口口口 |①---|
口口口口 |----|
口①①口 |②---|
口②②口 |----|
42
口口口口 |①---|
②②②② |----|
口①①口 |②---|
口口口口 |----|
43
口口①口 |①---|
④②口④ |②---|
口口③口 |③---|
口口口口 |④---|
44
口①口口 |①---|
④口②④ |②---|
口③口口 |③---|
口口口口 |④---|
45
口口口① |①---|
④口②④ |②---|
口③口口 |③---|
口口口口 |④---|
46
①口口口 |①---|
④②口④ |②---|
口口③口 |③---|
口口口口 |④---|
47
口口口① |①---|
④口②④ |②---|
口口口③ |③---|
口口口口 |④---|
48
①口口口 |①---|
④②口④ |②---|
③口口口 |③---|
口口口口 |④---|
49
口口口口 |①---|
口口口口 |----|
②①①② |②---|
口口口口 |----|
50
口口口口 |①---|
②口口② |----|
口①①口 |②---|
口口口口 |----|
51
口①①口 |①---|
口①①口 |----|
口口口口 |----|
口口口口 |----|
52
口口口口 |①---|
口②③口 |②---|
①口口④ |③---|
口口口口 |④---|
53
口口口口 |①---|
口口口口 |②---|
口③②口 |③---|
④口口① |④---|
54
口口口口 |①---|
口②③口 |②---|
①口口④ |③---|
口口口口 |④---|
55
口口口口 |①---|
④口口① |②---|
口③②口 |③---|
口口口口 |④---|
56
口口口口 |①---|
口②③口 |②---|
①口口④ |③---|
口口口口 |④---|
57
口③②口 |①---|
④口口① |②---|
口口口口 |③---|
口口口口 |④---|
58
①口口① |①---|
②口口② |----|
口口口口 |②---|
口口口口 |----|
59
口口口口 |①---|
②口口④ |②---|
口①③口 |③---|
口口口口 |④---|
60
口口口口 |①---|
口①③口 |②---|
②口口④ |③---|
口口口口 |④---|
61
②口口④ |①---|
口①③口 |②---|
口口口口 |③---|
口口口口 |④---|
62
口①③口 |①---|
②口口④ |②---|
口口口口 |③---|
口口口口 |④---|
63
①口口口 |①---|
口②口④ |②---|
口口③口 |③---|
口口口口 |④---|
64
口口口① |①---|
④口②口 |②---|
口③口口 |③---|
口口口口 |④---|
65
口①①口 |①---|
口②②口 |----|
口口口口 |②---|
口口口口 |----|
66
①①①① |①---|
口口口口 |----|
口口口口 |----|
口口口口 |----|
67
口口口口 |①---|
③②④① |②---|
口口口口 |③---|
口口口口 |④---|
68
口口口口 |①---|
口口口口 |②---|
③②④① |③---|
口口口口 |④---|
69
口口口口 |①---|
口口口口 |②---|
口口口口 |③---|
③②④① |④---|
70
口口口口 |①---|
口口口口 |②---|
③②④① |③---|
口口口口 |④---|
71
口口口② |①---|
口口③① |②---|
口④④口 |③---|
口口口口 |④---|
72
②口口口 |①---|
①③口口 |②---|
口④④口 |③---|
口口口口 |④---|
73
②口口④ |①---|
①③③① |②---|
口口口口 |③---|
口口口口 |④---|
74
口②②口 |①---|
①口口① |②---|
口口口口
口口口口

④口口④
④③③④
口口口口 |③---|
口口口口 |④---|

不確定度: 0

最終更新:2016年10月16日 02:19