眼光
猫大樹

ADVANCED

Level: 7
BPM: 165
Notes: 500

1
口口口口 |----|
口口口口 |----|
口口口口 |----|
口口口口 |----|
2
口口口口 |----|
口口口口 |----|
口口口口 |----|
口口口口 |----|
3
⑤口口口 |①-②-|
口④口口 |③-④-|
①口③口 |⑤---|
口②口口 |----|
4
②口口口 |①---|
②口口① |----|
口口口① |②---|
口口口口 |----|
5
口口口口 |①---|
口口口口 |----|
口①①口 |----|
口口口口 |----|
6
口口口口 |①---|
口②②口 |----|
③口口口 |②---|
③口①① |③---|
7
口口口⑤ |①-②-|
口口④口 |③-④-|
口③口① |⑤---|
口口②口 |----|
8
①口口口 |①---|
①口口② |----|
口口口② |②---|
口口口口 |----|
9
口口口口 |①---|
口口口口 |----|
①口口口 |----|
①口口口 |----|
10
口口口口 |①---|
①口口① |----|
①口口① |----|
口口口口 |----|
11
口①口口 |①---|
①口口口 |----|
口口口口
口口口口

口口③口
④③口②
口④②口 |②--③|
口口口口 |--④-|
12
口口④① |①---|
口③①④ |----|
②口③口 |②--③|
口②口口 |--④-|
13
①口口口 |①---|
①④②口 |②-③-|
④③⑤② |--④-|
口⑤③口 |⑤---|
14
口口口口 |----|
口口口口 |----|
口口口口 |----|
口口口口 |----|
15
口③③① |①---|
口口口① |----|
④②口④ |②--③|
口②口口 |--④-|
16
口口口口 |①---|
口①①口 |----|
口口口口
口口口口

②口口口
②④口③
④口③口 |②--③|
口口口口 |--④-|
17
口口⑤② |①---|
③④④口 |②---|
口①⑤② |③--④|
③口①口 |--⑤-|
18
口①口口 |①---|
口口口口 |----|
口①口口 |----|
口口口口 |----|
19
口口①口 |①---|
口口口① |----|
口口口口
口口口口

口③口口
②口③④
口②④口 |②--③|
口口口口 |--④-|
20
①④口口 |①---|
④①③口 |----|
口③口② |②--③|
口口②口 |--④-|
21
口口口① |①---|
口②④① |②-③-|
②⑤③④ |--④-|
口③⑤口 |⑤---|
22
口口口口 |----|
口口口口 |----|
口口口口 |----|
口口口口 |----|
23
①③③口 |①---|
①口口口 |----|
④口②④ |②--③|
口口②口 |--④-|
24
口口口口 |①---|
口①①口 |----|
口口口口
口口口口

口口口②
③口④②
口③口④ |②--③|
口口口口 |--④-|
25
②⑤⑤口 |①---|
口④④③ |②---|
②口①口 |③--④|
口①口③ |--⑤-|
26
①口口① |①---|
口口口口 |----|
口口口口 |----|
口口口口 |----|
27
①口口④ |①---|
口③③口 |②---|
口②②口 |③---|
④口口口 |④---|
28
口①口④ |①---|
口③③口 |②---|
口②②口 |③---|
④口口口 |④---|
29
④口①口 |①---|
口③③口 |②---|
口②②口 |③---|
口口口④ |④---|
30
口口口① |①---|
口口口口 |②---|
口②②口
口口口口

口口口④
口③③口
口口口口 |③---|
④口口口 |④---|
31
①口口口 |①---|
口②口口 |②---|
口口②口
口口口口

④口口口
口口③口
口③口口 |③---|
口口口④ |④---|
32
口口口① |①---|
口口②口 |②---|
口②口口
口口口口

口口口④
口③口口
口口③口 |③---|
④口口口 |④---|
33
口口口口 |①---|
④④②② |②---|
口口口口 |③---|
口③①口 |④---|
34
口④④口 |①---|
口④④口 |②---|
②①①② |③---|
③口口③ |④---|
35
③口口① |①---|
口口口口 |②---|
③口口① |③---|
口②④口 |④---|
36
④①口④ |①---|
②口口① |②---|
口口②③ |③---|
口③口口 |④---|
37
口②④口 |①---|
③口口① |②---|
口口口口 |③---|
③口口① |④---|
38
①口口口 |①---|
口口①② |②---|
口②口口
口口口口

④口口④
口口口口
③口口口 |③---|
口口③口 |④---|
39
口②②口 |①---|
②口口口 |----|
口口①① |②---|
口①口口 |----|
40
口②②口 |①---|
口口口② |----|
①①口口 |②---|
口口①口 |----|
41
口③③口 |①---|
②口口④ |②---|
②口口④ |③---|
口①①口 |④---|
42
口②口② |①---|
②口②口 |----|
口口口口 |②---|
口①①口 |----|
43
①口口③ |①---|
口口口口 |②---|
①口口③ |③---|
口④②口 |④---|
44
④口①④ |①---|
①口口② |②---|
③②口口 |③---|
口口③口 |④---|
45
口④②口 |①---|
①口口③ |②---|
口口口口 |③---|
①口口③ |④---|
46
口口口① |①---|
②①口口 |②---|
口口②口
口口口口

④口口④
口口口口
口口口③ |③---|
口③口口 |④---|
47
口②②口 |①---|
口口口② |----|
①①口口 |②---|
口口①口 |----|
48
口口口口 |①---|
口口②口 |②---|
口②①口
口①口口

口口③口
口③口口
⑤口⑤口 |③---|
口④口④ |④-⑤-|
49
②口③口 |----|
③口②① |①---|
口①口口 |②---|
口口口口 |③---|
50
口④⑤⑤ |①--②|
⑤⑤③口 |--③-|
②口口① |④---|
①口口② |⑤---|
51
口口口口 |①---|
口口口口 |----|
口口①① |----|
①①口口 |----|
52
③口口口 |①---|
③口口① |②---|
口口口① |③---|
②口口④ |④---|
53
③口口② |①---|
口口口口 |②---|
口①①口 |③---|
口口口④ |④---|
54
口口口② |①---|
口③③口 |②---|
口口口④ |③---|
①①口④ |④---|
55
⑤口口口 |①-②-|
口④口口 |③-④-|
①口③口 |⑤---|
⑥②口口 |⑥---|
56
④口口① |①---|
口口口① |②---|
③口口口 |③---|
③口口② |④---|
57
③口口② |①---|
口口①口 |②---|
口口口① |③---|
口口口④ |④---|
58
口①①口 |①---|
①口口① |②---|
口口口口
②口口口

口④④口
口口口口
口口口口 |③---|
口口口③ |④---|
59
口④④口 |①---|
③①口口 |②---|
①③口口 |③---|
口②②口 |④---|
60
口④④口 |①---|
口口①③ |②---|
口口③① |③---|
口②②口 |④---|
61
①④④③ |①---|
口①③口 |②---|
口口口口 |③---|
口②②口 |④---|
62
口④④口 |①---|
①口口③ |②---|
口①③口 |③---|
口②②口 |④---|
63
①④④③ |①---|
口口口口 |②---|
口①③口 |③---|
口②②口 |④---|
64
口④④口 |①---|
口①③口 |②---|
口口口口 |③---|
①②②③ |④---|
65
①口口① |①---|
①口口① |②---|
口④④口 |③---|
②口口③ |④---|
66
口①口① |①---|
①口①口 |----|
口口口口 |----|
口口口口 |----|
67
①口口口 |①---|
②④④③ |②---|
③④④② |③---|
口口口① |④---|
68
①②③口 |①---|
口④④口 |②---|
口④④口 |③---|
口③②① |④---|
69
口口口① |①---|
③④④② |②---|
②④④③ |③---|
①口口口 |④---|
70
口③②① |①---|
口④④口 |②---|
口④④口 |③---|
①②③口 |④---|
71
①②口口 |①---|
③④④口 |②---|
口④④③ |③---|
口口②① |④---|
72
口口②① |①---|
口④④③ |②---|
③④④口 |③---|
①②口口 |④---|
73
④③④③ |①---|
口口口口 |②---|
口口口口 |③---|
①②①② |④---|
74
④②口④ |①---|
②口②口 |②---|
④③①④ |③---|
③①③① |④---|

不確定度: 0

最終更新:2016年10月16日 02:19