眼光
猫大樹

EXTREME

Level: 8
BPM: 165
Notes: 687

1
口口口口 |----|
口口口口 |----|
口口口口 |----|
口口口口 |----|
2
③口口④ |①---|
口口口口 |②---|
口口口口 |③---|
①口口② |④---|
3
⑤⑤口口 |①-②-|
口④口口 |③-④-|
口②③口 |⑤---|
⑥①口口 |⑥---|
4
口③①① |①---|
③口口口 |②---|
口口口口 |③---|
④口口② |④---|
5
②口口③ |①---|
口口口口 |②---|
口④④① |③---|
口口①口 |④---|
6
口口口② |①---|
口①③口 |②---|
③口口① |③---|
④口口④ |④---|
7
⑤⑤口口 |①-②-|
口④口口 |③-④-|
口②③口 |⑤---|
⑥①口口 |⑥---|
8
口③①① |①---|
③口口口 |②---|
口口口口 |③---|
④口口② |④---|
9
②口口③ |①---|
口口口口 |②---|
口④④① |③---|
口口①口 |④---|
10
口①①口 |①---|
①口口① |----|
口口口口 |----|
口口口口 |----|
11
①④口① |①---|
③⑤⑤④ |②---|
①口③① |③--④|
口②②口 |--⑤-|
12
口③①⑤ |①---|
④⑤口口 |②---|
①口④③ |③--④|
口②②口 |--⑤-|
13
②③③④ |①---|
口口口① |②-③-|
②①口④ |--④-|
口⑤⑤口 |⑤---|
14
④④口口 |①---|
③口口口 |②---|
②②口口 |③---|
①口口口 |④---|
15
口口口① |①---|
③口⑤① |②---|
③⑤口④ |③--④|
口②②④ |--⑤-|
16
①③口③ |①---|
⑤①⑤口 |②---|
口④口④ |③--④|
口②②口 |--⑤-|
17
③⑤④② |①---|
口口口口 |②---|
①口①口 |③--④|
④②③⑤ |--⑤-|
18
④④口口 |①---|
③口口① |②---|
②②①口 |③---|
口①口口 |④---|
19
口口口口 |①---|
口①①口 |②---|
①口口①
口②②口

口口④口
④⑤⑤③
口③口口 |③--④|
口口口口 |--⑤-|
20
⑤①③口 |①---|
口口⑤④ |②---|
③④口① |③--④|
口②②口 |--⑤-|
21
④③③② |①---|
①口口口 |②-③-|
④口①② |--④-|
口⑤⑤口 |⑤---|
22
口口④④ |①---|
口口口③ |②---|
口口②② |③---|
口口口① |④---|
23
①口口口 |①---|
①⑤口③ |②---|
④口⑤③ |③--④|
④②②口 |--⑤-|
24
③口③① |①---|
口⑤①⑤ |②---|
④口④口 |③--④|
口②②口 |--⑤-|
25
②④⑤③ |①---|
口口口口 |②---|
口①口① |③--④|
⑤③②④ |--⑤-|
26
①口口口 |①---|
口①口① |②---|
口口①口
口②②口

④口口③
口口口口
③口口④ |③---|
口口口口 |④---|
27
⑤⑤⑥口 |①-②-|
①①②口 |③-④-|
⑦⑦⑦口 |⑤-⑥-|
③③④口 |⑦---|
28
口⑥⑤⑤ |①-②-|
口②①① |③-④-|
口⑦⑦⑦ |⑤-⑥-|
口④③③ |⑦---|
29
④④口③ |①---|
口口口③ |②---|
①口口口 |③---|
①口②② |④---|
30
④口④③ |①---|
①口口口 |②---|
口口口③ |③---|
①②口② |④---|
31
⑤口口口 |①-②-|
①②④③ |③-④-|
⑥⑥⑥口 |⑤---|
口③①⑤ |⑥---|
32
口口口⑤ |①-②-|
③④②① |③-④-|
口⑥⑥⑥ |⑤---|
⑤①③口 |⑥---|
33
①②⑤④ |①②--|
⑧口口⑨ |③-④⑤|
⑩口口⑦ |--⑥-|
口⑥③口 |⑦⑧⑨⑩|
34
④⑩⑩⑤ |①②③④|
⑩⑥③口 |⑤⑥⑦⑧|
⑩②⑦口 |⑨---|
⑧口⑨① |⑩---|
35
①口⑤② |①-②-|
⑤口①⑥ |③-④-|
口③口④ |⑤-⑥-|
口⑦口⑧ |⑦-⑧-|
36
口②口① |①---|
②口①口 |②---|
口①口②
①口②口

口口口口
口③口口
口口③口 |③---|
④③口④ |④---|
37
①口⑤② |①-②-|
⑤口①⑥ |③-④-|
口③口④ |⑤-⑥-|
口⑦口⑧ |⑦-⑧-|
38
口②口① |①---|
②口①口 |②---|
口①口②
①口②口

口口③口
口③口口
口口③口 |③---|
④口口④ |④---|
39
口①③口 |①---|
口③①口 |②---|
①口口③ |③---|
④②②④ |④---|
40
口①③③ |①---|
①③口① |②---|
③口①口 |③---|
④②②④ |④---|
41
④③③④ |①---|
③④②② |②---|
口②口① |③---|
口①①口 |④---|
42
口口口口 |①---|
口口口口 |----|
①①口口
口口①①

口②口口
口口②②
口口②口 |②---|
口③③口 |③---|
43
②⑤口① |①-②-|
⑥①口⑤ |③-④-|
④口③口 |⑤-⑥-|
⑧口⑦口 |⑦-⑧-|
44
①口②口 |①---|
口①口② |②---|
②口①口
口②口①

口口口口
口口③口
口③口口 |③---|
④口③④ |④---|
45
②⑤口① |①-②-|
⑥①口⑤ |③-④-|
④口③口 |⑤-⑥-|
⑧口⑦口 |⑦-⑧-|
46
①口②口 |①---|
口①口② |②---|
②口①口
口②口①

口③口口
口口③口
口③口口 |③---|
④口口④ |④---|
47
口③①口 |①---|
口①③口 |②---|
③口口① |③---|
④②②④ |④---|
48
③③①③ |①---|
①②口② |②---|
④⑤①口 |③---|
⑤④②口 |④-⑤-|
49
③②口口 |----|
口口口① |①---|
②③口口 |②---|
口口①口 |③---|
50
口口口⑤ |①--②|
口③②③ |--③-|
④口④口 |④---|
⑤①②① |⑤---|
51
②②口口 |①---|
①口口口 |----|
口①口① |②---|
③口①口 |③---|
52
口③①① |①---|
③口口口 |②---|
口①③口 |③---|
④口口② |④---|
53
②口口③ |①---|
口口口口 |②---|
口④④① |③---|
口①①口 |④---|
54
口口口② |①---|
口①①口 |②---|
口口口口
①口口口

口口口口
口口口口
③口③③ |③---|
④口④④ |④---|
55
⑤⑤口口 |①-②-|
口④口口 |③-④-|
口②③口 |⑤---|
⑥①口口 |⑥---|
56
口口①① |①---|
①口口口 |②---|
③口③③ |③---|
④口口② |④---|
57
②口口③ |①---|
①①口① |②---|
口④④口 |③---|
口口口口 |④---|
58
口①①口 |①---|
①口口① |②---|
口④④口 |③---|
③口口② |④---|
59
口①③② |①---|
口③①口 |②---|
③口口① |③---|
口口口④ |④---|
60
③口口② |①---|
口③③① |②---|
口①①③ |③---|
①口口④ |④---|
61
④口口③ |①---|
③口③① |②---|
①③①口 |③---|
②①口口 |④---|
62
④口口口 |①---|
③口口① |②---|
①③①③ |③---|
②①③口 |④---|
63
口③①口 |①---|
③口口① |②---|
①口口③ |③---|
④①③② |④---|
64
③口口① |①---|
口③①口 |②---|
①口口③ |③---|
④①③② |④---|
65
口口①④ |①---|
①口口① |②---|
口①口口 |③---|
③口口② |④---|
66
④①口口 |①---|
①口①口 |②---|
口①口① |③---|
②口口③ |④---|
67
口⑥⑤⑤ |①-②-|
口②①① |③-④-|
口⑦⑦⑦ |⑤-⑥-|
口④③③ |⑦---|
68
⑤⑤⑥口 |①-②-|
①①②口 |③-④-|
⑦⑦⑦口 |⑤-⑥-|
③③④口 |⑦---|
69
③口④④ |①---|
③口口口 |②---|
口口口① |③---|
②②口① |④---|
70
③④口④ |①---|
口口口① |②---|
③口口口 |③---|
②口②① |④---|
71
口口口⑤ |①-②-|
③④②① |③-④-|
口⑥⑥⑥ |⑤---|
⑤①③口 |⑥---|
72
⑤口口口 |①-②-|
①②④③ |③-④-|
⑥⑥⑥口 |⑤---|
口③①⑤ |⑥---|
73
④⑤②① |①②--|
⑨口口⑧ |③-④⑤|
⑦口口⑩ |--⑥-|
口③⑥口 |⑦⑧⑨⑩|
74
⑤⑩⑩④ |①②③④|
口③⑥⑩ |⑤⑥⑦⑧|
口⑦②⑩ |⑨---|
①⑨口⑧ |⑩---|

不確定度: 0

最終更新:2016年10月16日 02:19