反撃
猫大樹

BASIC

Level: 3
BPM: 145
Notes: 192

1
口口口口 |----|
口口口口 |----|
口口口口 |----|
口口口口 |----|
2
口口口口 |①---|
口②①口 |----|
口口口口 |②---|
口口口口 |----|
3
口口口口 |①---|
口口口口 |----|
口①②口 |②---|
口口口口 |----|
4
口口口口 |①---|
口口②① |----|
口口口口 |②---|
口口口口 |----|
5
口口口口 |①---|
②①口口 |----|
口口口口 |②---|
口口口口 |----|
6
①②口口 |①---|
口口口口 |----|
口口口口 |②---|
口口口口 |----|
7
口②②口 |①---|
口①口口 |----|
口口口口 |②---|
口口口口 |----|
8
口口口口 |①---|
①②口口 |----|
口口口口 |②---|
口口口口 |----|
9
口口口口 |①---|
口口①② |----|
口口口口 |②---|
口口口口 |----|
10
口口②① |①---|
口口口口 |----|
口口口口 |②---|
口口口口 |----|
11
口②②口 |①---|
口口①口 |----|
口口口口 |②---|
口口口口 |----|
12
口口口口 |①---|
口口①口 |----|
口口口口 |----|
口口口口 |----|
13
口口口口 |①---|
口口口口 |----|
口口①口 |----|
口口口口 |----|
14
口口口口 |①---|
口口①口 |----|
口口口口 |----|
口口口口 |----|
15
口②②口 |①---|
口口口① |----|
口口口口 |②---|
口口口口 |----|
16
口口口口 |①---|
口①口口 |----|
口口口口 |----|
口口口口 |----|
17
口口口口 |①---|
口口口口 |----|
口①口口 |----|
口口口口 |----|
18
口口口口 |①---|
口①口口 |----|
口口口口 |----|
口口口口 |----|
19
口口口口 |①---|
①口口口 |----|
口②②口 |②---|
口口口口 |----|
20
口口口口 |①---|
口口口口 |----|
口口口② |②---|
口口①口 |----|
21
口口口口 |①---|
口②②口 |----|
口口①口 |②---|
口口口口 |----|
22
①②③④ |①---|
口口口口 |②---|
口口口口 |③---|
口口口口 |④---|
23
口口口口 |①---|
口口②① |②---|
口口③口 |③---|
口口口口 |----|
24
口口口口 |①---|
口口口口 |----|
②口口口 |②---|
口①口口 |----|
25
口口口口 |①---|
口②②口 |----|
口①口口 |②---|
口口口口 |----|
26
④③②① |①---|
口口口口 |②---|
口口口口 |③---|
口口口口 |④---|
27
口口口口 |①---|
①口口① |----|
口口口口 |----|
口口口口 |----|
28
口口口口 |①---|
口口口口 |----|
口口口口 |②---|
②①口口 |----|
29
口口口口 |①---|
口②②口 |----|
口①口口 |②---|
口口口口 |----|
30
④③②① |①---|
口口口口 |②---|
口口口口 |③---|
口口口口 |④---|
31
口口口口 |①---|
①②口口 |②---|
口③口口 |③---|
口口口口 |----|
32
口口口口 |①---|
口口口口 |----|
口口口口 |②---|
口口①② |----|
33
口口口口 |①---|
口②②口 |----|
口口①口 |②---|
口口口口 |----|
34
①②③④ |①---|
口口口口 |②---|
口口口口 |③---|
口口口口 |④---|
35
口口口口 |①---|
①①①① |----|
口口口口 |----|
口口口口 |----|
36
口口口口 |①---|
①②口口 |----|
口口口口 |②---|
口口口口 |----|
37
口口口口 |①---|
口口①② |----|
口口口口 |②---|
口口口口 |----|
38
口口②① |①---|
口口口口 |----|
口口口口 |②---|
口口口口 |----|
39
口②②口 |①---|
口口①口 |----|
口口口口 |②---|
口口口口 |----|
40
口口口口 |①---|
口口②① |----|
口口口口 |②---|
口口口口 |----|
41
口口口口 |①---|
②①口口 |----|
口口口口 |②---|
口口口口 |----|
42
①②口口 |①---|
口口口口 |----|
口口口口 |②---|
口口口口 |----|
43
口②②口 |①---|
口①口口 |----|
口口口口 |②---|
口口口口 |----|
44
口口口口 |①---|
口①①口 |----|
口口口口 |----|
口口口口 |----|
45
口口口口 |①---|
①口口① |----|
口口口口 |----|
口口口口 |----|
46
口口口口 |①---|
口口口口 |----|
口①①口 |----|
口口口口 |----|
47
口口口口 |①---|
口口口口 |----|
①口口① |----|
口口口口 |----|
48
口口口口 |①---|
口①①口 |----|
口口口口 |----|
口口口口 |----|
49
口口口口 |①---|
①口口① |----|
口口口口 |----|
口口口口 |----|
50
口口口口 |①---|
口口口口 |----|
口①①口 |----|
口口口口 |----|
51
口口口口 |①---|
口口口口 |----|
①口口① |----|
口口口口 |----|
52
口口口口 |①---|
口口口口 |----|
口②②口 |②---|
口①①口 |----|
53
口口口口 |①---|
口①①口 |----|
口②②口 |②---|
口口口口 |----|
54
口口口口 |①---|
①②③④ |②---|
口口口口 |③---|
口口口口 |④---|
55
口口口口 |①---|
口口口口 |②---|
口③②① |③---|
口口口口 |----|
56
口口口口 |①---|
口口口口 |----|
口②②口 |②---|
口①①口 |----|
57
口口口口 |①---|
口①①口 |----|
口②②口 |②---|
口口口口 |----|
58
口口口口 |①---|
④③②① |②---|
口口口口 |③---|
口口口口 |④---|
59
①口口① |①---|
口口口口 |----|
口口口口 |----|
口口口口 |----|
60
口口口口 |①---|
②①①② |----|
口口口口 |②---|
口口口口 |----|
61
口口口口 |①---|
口口口口 |----|
①②②① |②---|
口口口口 |----|
62
④口②口 |①---|
口③口① |②---|
口口口口 |③---|
口口口口 |④---|
63
口②口口 |①---|
①口③口 |②---|
口口口口 |③---|
口口口口 |----|
64
口①①口 |①---|
口②②口 |----|
口口口口 |②---|
口口口口 |----|
65
口口口口 |①---|
口口口口 |----|
口①①口 |②---|
口②②口 |----|
66
口口口口 |①---|
口②口④ |②---|
①口③口 |③---|
口口口口 |④---|
67
①①①① |①---|
口口口口 |----|
口口口口 |----|
口口口口 |----|
68
口口口口 |①---|
①口口口 |②---|
口②口④ |③---|
口口③口 |④---|
69
口口口口 |①---|
口口口① |②---|
④口②口 |③---|
口③口口 |④---|
70
口口口口 |①---|
①口口口 |②---|
口②口④ |③---|
口口③口 |④---|
71
口口口口 |①---|
口口口① |②---|
④口②口 |③---|
口③口口 |④---|

不確定度: 0

最終更新:2016年10月16日 02:18