反撃
猫大樹

ADVANCED

Level: 6
BPM: 145
Notes: 456

1
口口口口 |----|
口口口口 |----|
口口口口 |----|
口口口口 |----|
2
②口口④ |①---|
口口口口 |②---|
③①①③ |③---|
口口口口 |④---|
3
②口口④ |①---|
口口口口 |②---|
③①①③ |③---|
口口口口 |④---|
4
口③③口 |①---|
口④④口 |②---|
口②②口 |③---|
口①①口 |④---|
5
②④④② |①---|
①③③① |②---|
口口口口 |③---|
口口口口 |④---|
6
③口口① |①---|
口口口口 |②---|
④②②④ |③---|
口口口口 |④---|
7
③①①③ |①---|
口口口口 |②---|
口②②口 |③---|
口口口口 |----|
8
口③③口 |①---|
口④④口 |②---|
口②②口 |③---|
口①①口 |④---|
9
②④④② |①---|
①③③① |②---|
口口口口 |③---|
口口口口 |④---|
10
③口口① |①---|
口口口口 |②---|
④②②④ |③---|
口口口口 |④---|
11
③①①③ |①---|
口口口口 |②---|
口②②口 |③---|
口口口口 |----|
12
口口口口 |①---|
②口口③ |②---|
④口口① |③---|
口口口口 |④---|
13
口口口口 |①---|
口口口口 |②---|
④口口① |③---|
②口口③ |④---|
14
②口口③ |①---|
④口口① |②---|
口口口口 |③---|
口口口口 |④---|
15
口①①口 |①---|
口②②口 |②---|
口③③口 |③---|
口口口口 |----|
16
口口口口 |①---|
③口口② |②---|
①口口④ |③---|
口口口口 |④---|
17
口口口口 |①---|
口口口口 |②---|
①口口④ |③---|
③口口② |④---|
18
③口口② |①---|
①口口④ |②---|
口口口口 |③---|
口口口口 |④---|
19
口①①口 |①---|
口②②口 |②---|
口③③口 |③---|
口口口口 |----|
20
②②口口 |①---|
④④①① |②---|
口口③③ |③---|
口口口口 |④---|
21
口口口口 |①---|
④④口口 |②---|
②②③③ |③---|
口口①① |④---|
22
③②②① |①---|
③④④① |②---|
口口口口 |③---|
口口口口 |④---|
23
口口口口 |①---|
③口口① |②---|
③②②① |③---|
口口口口 |----|
24
②②口口 |①---|
④④①① |②---|
口口③③ |③---|
口口口口 |④---|
25
口口口口 |①---|
④④口口 |②---|
②②③③ |③---|
口口①① |④---|
26
①口口① |①---|
③口口③ |②---|
口②②口 |③---|
口④④口 |④---|
27
①①①① |①---|
口口口口 |----|
口口口口 |----|
口口口口 |----|
28
口口②② |①---|
①①④④ |②---|
③③口口 |③---|
口口口口 |④---|
29
口口口口 |①---|
口口④④ |②---|
③③②② |③---|
①①口口 |④---|
30
①②②③ |①---|
①④④③ |②---|
口口口口 |③---|
口口口口 |④---|
31
口口口口 |①---|
①口口③ |②---|
①②②③ |③---|
口口口口 |----|
32
口口②② |①---|
①①④④ |②---|
③③口口 |③---|
口口口口 |④---|
33
口口口口 |①---|
口口④④ |②---|
③③②② |③---|
①①口口 |④---|
34
①口口① |①---|
③口口③ |②---|
口②②口 |③---|
口④④口 |④---|
35
①①①① |①---|
口口口口 |----|
口口口口 |----|
口口口口 |----|
36
口③③口 |①---|
口④④口 |②---|
口②②口 |③---|
口①①口 |④---|
37
②④④② |①---|
①③③① |②---|
口口口口 |③---|
口口口口 |④---|
38
③口口① |①---|
口口口口 |②---|
④②②④ |③---|
口口口口 |④---|
39
③①①③ |①---|
口口口口 |②---|
口②②口 |③---|
口口口口 |----|
40
口③③口 |①---|
口④④口 |②---|
口②②口 |③---|
口①①口 |④---|
41
②④④② |①---|
①③③① |②---|
口口口口 |③---|
口口口口 |④---|
42
③口口① |①---|
口口口口 |②---|
④②②④ |③---|
口口口口 |④---|
43
③①①③ |①---|
口口口口 |②---|
口②②口 |③---|
口口口口 |----|
44
口④④口 |①---|
口口②口 |②---|
口③口① |③---|
口口口口 |④---|
45
口口口口 |①---|
口③口① |②---|
口口②口 |③---|
口④④口 |④---|
46
口④④口 |①---|
口口②口 |②---|
口③口① |③---|
口口口口 |④---|
47
口口口口 |①---|
口③口① |②---|
口口②口 |③---|
口④④口 |④---|
48
口④④口 |①---|
口②口口 |②---|
①口③口 |③---|
口口口口 |④---|
49
口口口口 |①---|
①口③口 |②---|
口②口口 |③---|
口④④口 |④---|
50
口④④口 |①---|
口②口口 |②---|
①口③口 |③---|
口口口口 |④---|
51
口口口口 |①---|
①口③口 |②---|
口②口口 |③---|
口④④口 |④---|
52
②②口口 |①---|
①口口① |②---|
口口口口
口口口口

口口口口
④④口口
③口口③ |③---|
口口口口 |④---|
53
④口口口 |①---|
口④口口 |②---|
②②③③ |③---|
①口口① |④---|
54
③②②① |①---|
口③①口 |②---|
口④口口 |③---|
④口口口 |④---|
55
口②②口 |①---|
口口口口 |②---|
③口①③ |③---|
口口口① |----|
56
②②口口 |①---|
①口口① |②---|
口口口口
口口口口

口口口口
④④口口
③口口③ |③---|
口口口口 |④---|
57
④口口口 |①---|
口④口口 |②---|
②②③③ |③---|
①口口① |④---|
58
口②②① |①---|
口口①口 |②---|
③口口③ |③---|
口④④口 |④---|
59
①①①① |①---|
口口口口 |----|
口口口口 |----|
口口口口 |----|
60
口口②② |①---|
①口口① |②---|
口口口口
口口口口

口口口口
口口④④
③口口③ |③---|
口口口口 |④---|
61
口口口④ |①---|
口口④口 |②---|
③③②② |③---|
①口口① |④---|
62
①②②③ |①---|
口①③口 |②---|
口口④口 |③---|
口口口④ |④---|
63
口②②口 |①---|
口口口口 |②---|
③①口③ |③---|
①口口口 |----|
64
口口②② |①---|
①口口① |②---|
口口口口
口口口口

口口口口
口口④④
③口口③ |③---|
口口口口 |④---|
65
口口口④ |①---|
口口④口 |②---|
③③②② |③---|
①口口① |④---|
66
①②②口 |①---|
口①口口 |②---|
③口口③ |③---|
口④④口 |④---|
67
①①①① |①---|
口口口口 |----|
口口口口 |----|
口口口口 |----|
68
②口口④ |①---|
口口口口 |②---|
③①①③ |③---|
口口口口 |④---|
69
②口口④ |①---|
口口口口 |②---|
③①①③ |③---|
口口口口 |④---|
70
②口口④ |①---|
口口口口 |②---|
③①①③ |③---|
口口口口 |④---|
71
②口口④ |①---|
口口口口 |②---|
③①①③ |③---|
口口口口 |④---|

不確定度: 0

最終更新:2016年10月16日 02:17