JACK THE RIPPER feat. Iceon
猫大樹

BASIC

Level: 2
BPM: 145
Notes: 130

1
口口口口 |----|
口口口口 |----|
口口口口 |----|
口口口口 |----|
2
口口口口 |①---|
口口口口 |----|
口②口口 |②---|
口①口口 |----|
3
口口口口 |----|
口口口口 |----|
口口口口 |----|
口口口口 |----|
4
口口口口 |①---|
口口口口 |----|
口口②口 |②---|
口口①口 |----|
5
口口口口 |----|
口口口口 |----|
口口口口 |----|
口口口口 |----|
6
口口口口 |①---|
口口②① |----|
口口口口 |②---|
口口口口 |----|
7
口口口口 |----|
口口口口 |----|
口口口口 |----|
口口口口 |----|
8
口口口口 |①---|
①②口口 |----|
口口口口 |②---|
口口口口 |----|
9
口口口口 |----|
口口口口 |----|
口口口口 |----|
口口口口 |----|
10
口口口口 |①---|
口口口口 |----|
口①①口 |----|
口口口口 |----|
11
口口口口 |①---|
口①①口 |----|
口口口口 |----|
口口口口 |----|
12
口口口口 |①---|
口口口口 |----|
口①①口 |----|
口口口口 |----|
13
口口口口 |①---|
口①①口 |----|
口口口口 |----|
口口口口 |----|
14
口①口口 |①---|
口②口口 |----|
口口口口 |②---|
口口口口 |----|
15
口口口口 |①---|
口口口口 |----|
口①口口 |②---|
口②口口 |----|
16
口口口口 |①---|
口口口口 |----|
口口②口 |②---|
口口①口 |----|
17
口口②口 |①---|
口口①口 |----|
口口口口 |②---|
口口口口 |----|
18
口①口口 |①---|
口②口口 |----|
口口口口 |②---|
口口口口 |----|
19
口口口口 |①---|
口口口口 |----|
口①口口 |②---|
口②口口 |----|
20
口口口口 |①---|
口口口口 |----|
口口②口 |②---|
口口①口 |----|
21
口口②口 |①---|
口口①口 |----|
口口口口 |②---|
口口口口 |----|
22
口口口口 |----|
口口②① |①---|
口口口口 |----|
口口口口 |②---|
23
口口口口 |----|
②①口口 |①---|
口口口口 |----|
口口口口 |②---|
24
口口口口 |----|
口口口口 |①---|
①②口口 |----|
口口口口 |②---|
25
口口口口 |----|
口口口口 |①---|
口口①② |----|
口口口口 |②---|
26
口口口口 |----|
口口②① |①---|
口口口口 |----|
口口口口 |②---|
27
口口口口 |----|
②①口口 |①---|
口口口口 |----|
口口口口 |②---|
28
口口口口 |----|
口口口口 |①---|
①②口口 |----|
口口口口 |②---|
29
口口口口 |----|
口口口口 |①---|
口口①② |----|
口口口口 |②---|
30
口口口口 |①---|
口口①口 |----|
口口口口 |----|
口口口口 |----|
31
口口口口 |①---|
口口口口 |----|
口①①口 |----|
口口口口 |----|
32
口口口口 |①---|
口①口口 |----|
口口口口 |----|
口口口口 |----|
33
口口口口 |①---|
口口口口 |----|
口①①口 |----|
口口口口 |----|
34
口口口口 |①---|
口口①口 |----|
口口口口 |----|
口口口口 |----|
35
口口口口 |①---|
口口口口 |----|
口①①口 |----|
口口口口 |----|
36
口口口口 |①---|
口①口口 |----|
口口口口 |----|
口口口口 |----|
37
口口口口 |①---|
口口口口 |----|
口①①口 |----|
口口口口 |----|
38
口口口口 |①---|
口口②① |----|
口口口口 |②---|
口口口口 |----|
39
口口口口 |①---|
口口口口 |----|
口①①口 |----|
口口口口 |----|
40
口口口口 |①---|
①②口口 |----|
口口口口 |②---|
口口口口 |----|
41
口口口口 |①---|
口口口口 |----|
②①①② |②---|
口口口口 |----|
42
口口口口 |①---|
口口②① |----|
口口口口 |②---|
口口口口 |----|
43
口口口口 |①---|
口口口口 |----|
口①①口 |----|
口口口口 |----|
44
口口口口 |①---|
①②口口 |----|
口口口口 |②---|
口口口口 |----|
45
口口口口 |①---|
口口口口 |----|
②①①② |②---|
口口口口 |----|
46
口口②口 |①---|
口口口① |----|
口口口口 |②---|
口口口口 |----|
47
口①口口 |①---|
②口口口 |----|
口口口口 |②---|
口口口口 |----|
48
口口口口 |①---|
口口口口 |----|
①口口口 |②---|
口②口口 |----|
49
口口口口 |①---|
口口口口 |----|
口口口② |②---|
口口①口 |----|
50
口口②口 |①---|
口①①口 |----|
口口口口 |②---|
口口口口 |----|
51
口②口口 |①---|
口①①口 |----|
口口口口 |②---|
口口口口 |----|
52
口口口口 |①---|
口①①口 |----|
口口口口 |----|
口口口口 |----|
53
①①①① |①---|
口口口口 |----|
口口口口 |----|
口口口口 |----|
54
口口口口 |----|
①②口口 |①---|
口口口口 |----|
口口口口 |②---|
55
口口口口 |----|
口口①② |①---|
口口口口 |----|
口口口口 |②---|
56
口口口口 |----|
口口口口 |①---|
口口②① |----|
口口口口 |②---|
57
口口口口 |----|
口口口口 |①---|
②①口口 |----|
口口口口 |②---|
58
口口口口 |①---|
口①口口 |----|
口②②口 |②---|
口口口口 |----|
59
口口口口 |----|
口口口口 |----|
①口口① |①---|
口口口口 |----|
60
口口口口 |①---|
口口①口 |----|
口②②口 |②---|
口口口口 |----|
61
口口口口 |----|
口口口口 |----|
①口口① |①---|
口口口口 |----|
62
口口口口 |①---|
口①①口 |----|
口口口口 |----|
口口口口 |----|
63
口口口口 |①---|
口口口口 |----|
口①①口 |----|
口口口口 |----|
64
口口口口 |①---|
口口口口 |----|
①口口① |----|
口口口口 |----|
65
口口口口 |①---|
①②②① |--②-|
口②②口 |----|
口口口口 |----|

不確定度: 0

最終更新:2016年10月16日 02:16