JACK THE RIPPER feat. Iceon
猫大樹

ADVANCED

Level: 7
BPM: 145
Notes: 408

1
口口口口 |----|
口口口口 |----|
口口口口 |----|
口口口口 |----|
2
口③③口 |①---|
口口口② |----|
口①口口 |②---|
口口口口 |--③-|
3
①口口① |----|
口口口口 |----|
口口口口 |①---|
口口口口 |----|
4
口③③口 |①---|
②口口口 |----|
口口①口 |②---|
口口口口 |--③-|
5
①口口① |----|
口口口口 |----|
口口口口 |①---|
口口口口 |----|
6
口口口口 |①---|
口口③口 |----|
口①①口 |②---|
口口②口 |③---|
7
①口口① |----|
口口口口 |----|
口口口口 |①---|
口口口口 |----|
8
口口口口 |①---|
口③口口 |----|
口①①口 |②---|
口②口口 |③---|
9
①口口① |----|
口口口口 |----|
口口口口 |①---|
口口口口 |----|
10
②口口② |①---|
口①口口 |--②-|
口口①口 |----|
口口口口 |----|
11
②口口② |①---|
口口①口 |--②-|
口①口口 |----|
口口口口 |----|
12
②口口② |①---|
口①口口 |--②-|
口口①口 |----|
口口口口 |----|
13
②口口② |①---|
口口①口 |--②-|
口①口口 |----|
口口口口 |----|
14
口口口口 |①---|
口②③口 |----|
①④⑤① |②-③-|
口口口口 |④-⑤-|
15
口口口口 |①-②-|
①④④② |③---|
③口口口 |④---|
口口口口 |----|
16
①口口① |①---|
口②③口 |----|
口④口口 |②-③-|
口口口口 |④---|
17
口口口口 |①---|
②口口③ |----|
④口口口 |②-③-|
①口口① |④---|
18
口口口口 |①---|
口④⑤口 |----|
口②③口 |②-③-|
口①①口 |④-⑤-|
19
口口口口 |①-②-|
③⑦口④ |③-④-|
①⑤⑥② |⑤-⑥-|
口口口口 |⑦---|
20
口口口口 |①---|
口口口口 |----|
①口口①
口口口口

口口口口
口口口口
④口口⑤ |②-③-|
口②③口 |④-⑤-|
21
③口口④ |①-②-|
⑤①②⑥ |③-④-|
口⑦⑦口 |⑤-⑥-|
口口口口 |⑦---|
22
口口口口 |①---|
口③②口 |----|
①⑤④① |②-③-|
口口口口 |④-⑤-|
23
口口口口 |①-②-|
②④④① |③---|
口口口③ |④---|
口口口口 |----|
24
①口口① |①---|
口③②口 |----|
口口④口 |②-③-|
口口口口 |④---|
25
口口口口 |①---|
③口口② |----|
口口口④ |②-③-|
①口口① |④---|
26
口口口口 |①---|
口⑤④口 |----|
口③②口 |②-③-|
口①①口 |④-⑤-|
27
口口口口 |①-②-|
④口⑦③ |③-④-|
②⑥⑤① |⑤-⑥-|
口口口口 |⑦---|
28
口口口口 |①---|
口口口口 |----|
①口口①
口口口口

口口口口
口口口口
⑤口口④ |②-③-|
口③②口 |④-⑤-|
29
④口口③ |①-②-|
⑥②①⑤ |③-④-|
⑧口口⑦ |⑤-⑥-|
口口口口 |⑦-⑧-|
30
④口口④ |①---|
口③③口 |②---|
口②②口 |③---|
口①①口 |④---|
31
口①①口 |①---|
口②②口 |②---|
口③③口 |③---|
④口口④ |④---|
32
④口口④ |①---|
口③③口 |②---|
口②②口 |③---|
口①①口 |④---|
33
口①①口 |①---|
口②②口 |②---|
口③③口 |③---|
④口口④ |④---|
34
④口口④ |①---|
口②③口 |②---|
口②③口 |③---|
口①①口 |④---|
35
口①①口 |①---|
口③②口 |②---|
口③②口 |③---|
④口口④ |④---|
36
④口口④ |①---|
口②③口 |②---|
口②③口 |③---|
口①①口 |④---|
37
口①①口 |①---|
口③②口 |②---|
口③②口 |③---|
④口口④ |④---|
38
④口口④ |①---|
②③口口 |②---|
②口③口 |③---|
口①①口 |④---|
39
口①①口 |①---|
口口③② |②---|
口③口② |③---|
④口口④ |④---|
40
④口口④ |①---|
②③口口 |②---|
②口③口 |③---|
口①①口 |④---|
41
口①①口 |①---|
口④③② |②---|
口③④② |③---|
口口口口 |④---|
42
④口口④ |①---|
②口口③ |②---|
口②③口 |③---|
口①①口 |④---|
43
口①①口 |①---|
口③②口 |②---|
③口口② |③---|
④口口④ |④---|
44
④口口④ |①---|
②口口③ |②---|
口②③口 |③---|
口①①口 |④---|
45
口①①口 |①---|
口③②口 |②---|
③口口② |③---|
④口口④ |④---|
46
口口口口 |①---|
③④④③ |②---|
②①①② |③---|
口①①口 |④---|
47
①①①① |①---|
②口口② |②---|
③④④③ |③---|
口口口口 |④---|
48
②口口② |①---|
①①①① |②---|
口口口口
口口口口

口③③口
口④④口
口口口口 |③---|
口口口口 |④---|
49
口口口口 |①---|
①口口① |②---|
②口口② |③---|
③④④③ |④---|
50
口口口口 |①---|
②口口② |②---|
①①①①
口口口口

口口口口
口③③口
口④④口 |③---|
口口口口 |④---|
51
①①①① |①---|
②口口② |②---|
③④④③ |③---|
口口口口 |④---|
52
口口口口 |①---|
①①①① |②---|
②口口②
口口口口

口口口口
口④④口
口③③口 |③---|
口口口口 |④---|
53
①①①① |①---|
②口口② |②---|
③口口③ |③---|
④口口④ |④---|
54
口口口② |①---|
口④④口 |----|
③①①口 |②--③|
口口口口 |--④-|
55
②口口② |----|
口口口口 |----|
口口口口 |①---|
①口口① |②---|
56
②口口口 |①---|
口④④口 |----|
口①①③ |②--③|
口口口口 |--④-|
57
②口口② |----|
口口口口 |----|
口口口口 |①---|
①口口① |②---|
58
口口②口 |①--②|
口口口口 |--③-|
①口③口
口口口口

口口⑦口
口⑥⑤口
口④口口 |④-⑤-|
口口口口 |⑥-⑦-|
59
②口口② |----|
口口口口 |----|
口口口口 |①---|
①口口① |②---|
60
口②口口 |①--②|
口口口口 |--③-|
口③口①
口口口口

口⑦口口
口⑤⑥口
口口④口 |④-⑤-|
口口口口 |⑥-⑦-|
61
②口口② |----|
口口口口 |----|
口口口口 |①---|
①口口① |②---|
62
口口②口 |①---|
口口口② |--②-|
口①口口 |--③-|
③口①③ |----|
63
口②口口 |①---|
②口口口 |--②-|
口口①口 |--③-|
③①口③ |----|
64
口口②口 |①---|
口口口② |--②-|
口①口口 |--③-|
③口①③ |----|
65
口②②口 |①---|
口②②口 |--②-|
口口①口 |----|
口①口口 |----|

不確定度: 0

最終更新:2016年10月16日 02:15