厳冬記
猫大樹

BASIC

Level: 5
BPM: 150
Notes: 332

1
口口口口 |----|
口口口口 |----|
口口口口 |----|
口口口口 |----|
2
口口口口 |①---|
口口口口 |----|
口口口口 |----|
口①口口 |----|
3
口①口口 |①---|
口口③口 |--②-|
口②口口 |----|
口口口口 |③---|
4
口口口口 |①---|
口口口口 |----|
口口①口 |----|
口口口口 |----|
5
口口口口 |①---|
口①①口 |----|
口口口口 |----|
口口口口 |----|
6
口口口口 |①---|
口口口口 |----|
口口口口 |----|
口口①口 |----|
7
口口①口 |①---|
口③口口 |--②-|
口口②口 |----|
口口口口 |③---|
8
口口口口 |①---|
口口口口 |----|
口①口口 |----|
口口口口 |----|
9
口口口口 |①---|
口①①口 |----|
口口口口 |----|
口口口口 |----|
10
①口口① |①---|
口口口口 |----|
口口口口 |----|
口口口口 |----|
11
口口口口 |①---|
口口②口 |②---|
口③口① |③---|
口④④口 |④---|
12
口口口口 |----|
口口口口 |----|
口口口口 |----|
口口口口 |----|
13
口口口口 |①---|
口②口口 |②---|
①口③口 |③---|
口④④口 |④---|
14
口口口口 |----|
口口口口 |----|
口口口口 |----|
口口口口 |----|
15
口口①口 |①---|
口②口口 |②---|
口口③口 |③---|
口④④口 |④---|
16
口口口口 |----|
口口口口 |----|
口口口口 |----|
口口口口 |----|
17
口口口口 |①---|
口①①口 |----|
口①①口 |----|
口口口口 |----|
18
①口口口 |①---|
口②④④ |②---|
口③口口 |③---|
口口口口 |④---|
19
口口口口 |①---|
口口③口 |②---|
④④②口 |③---|
口口口① |④---|
20
口口口① |①---|
④④②口 |②---|
口口③口 |③---|
口口口口 |④---|
21
口口口口 |①---|
口③口口 |②---|
口②④④ |③---|
①口口口 |④---|
22
口口口① |①---|
④④②口 |②---|
口口③口 |③---|
口口口口 |④---|
23
口口口口 |①---|
口③口口 |②---|
口②④④ |③---|
①口口口 |④---|
24
①口口口 |①---|
口②④④ |②---|
口③口口 |③---|
口口口口 |④---|
25
口口口口 |①---|
口口③口 |②---|
④④②口 |③---|
口口口① |④---|
26
口口口口 |①---|
①①口口 |----|
口②②口 |②---|
口口口口 |----|
27
口口口口 |①---|
口口①① |----|
口②②口 |②---|
口口口口 |----|
28
口口①① |①---|
口口口口 |----|
口②②口 |②---|
口口口口 |----|
29
①①口口 |①---|
口口口口 |----|
口②②口 |②---|
口口口口 |----|
30
口口口口 |①---|
口口①① |----|
口②②口 |②---|
口口口口 |----|
31
口口口口 |①---|
①①口口 |----|
口②②口 |②---|
口口口口 |----|
32
①①口口 |①---|
口口口口 |----|
口②②口 |②---|
口口口口 |----|
33
口口①① |①---|
口口口口 |----|
口②②口 |②---|
口口口口 |----|
34
口口口口 |①---|
①口口② |----|
①口口② |②---|
口口口口 |----|
35
口口口口 |①---|
③口口③ |②---|
口②②口 |③---|
口①①口 |----|
36
口①①口 |①---|
②口口② |----|
口口口口 |②---|
口口口口 |----|
37
②口口② |①---|
口口口口 |----|
口①①口 |②---|
口口口口 |----|
38
口口口口 |①---|
②口口① |----|
②口口① |②---|
口口口口 |----|
39
口口口口 |①---|
③口口③ |②---|
口②②口 |③---|
口①①口 |----|
40
口①①口 |①---|
②口口② |----|
口口口口 |②---|
口口口口 |----|
41
①①①① |①---|
口口③口 |----|
口②③口 |②---|
口②口口 |③---|
42
②口口① |①---|
②口③① |--②-|
口④口口 |--③-|
口口口口 |④---|
43
②①①② |①---|
口口口⑤ |--②-|
④口口③ |--③-|
口口口口 |④-⑤-|
44
口①②口 |①-②-|
口③④口 |③-④-|
口⑦⑧口 |⑤-⑥-|
口⑤⑥口 |⑦-⑧-|
45
口口口口 |①---|
①③口① |--②-|
口③口口 |----|
口口②② |③---|
46
①口口② |①---|
①③口② |--②-|
口口④口 |--③-|
口口口口 |④---|
47
②①①② |①---|
⑤口口口 |--②-|
③口口④ |--③-|
口口口口 |④-⑤-|
48
口②①口 |①-②-|
口④③口 |③-④-|
口⑧⑦口 |⑤-⑥-|
口⑥⑤口 |⑦-⑧-|
49
口口口口 |①---|
①口③① |--②-|
口口口③ |----|
②②口口 |③---|
50
口口①口 |①---|
口口口① |--②-|
③口口④ |--③-|
口②②口 |④---|
51
②口①② |①---|
⑤①口口 |--②-|
③口口④ |--③-|
口口口口 |④-⑤-|
52
口②①口 |①-②-|
口④③口 |③-④-|
口⑧⑦口 |⑤-⑥-|
口⑥⑤口 |⑦-⑧-|
53
口口口口 |①---|
①③口① |--②-|
③口口口 |----|
口口②② |③---|
54
口①口口 |①---|
①口口口 |--②-|
④口口③ |--③-|
口②②口 |④---|
55
②①口② |①---|
口口①⑤ |--②-|
④口口③ |--③-|
口口口口 |④-⑤-|
56
口①②口 |①-②-|
口③④口 |③-④-|
口⑦⑧口 |⑤-⑥-|
口⑤⑥口 |⑦-⑧-|
57
②口②口 |①---|
①口口① |----|
③口③口 |②---|
口口口口 |③---|
58
口①口口 |①---|
口④③④ |--②-|
口①口口 |--③-|
口②③② |--④-|
59
①口②口 |----|
③③③口 |--①-|
①口②口 |--②-|
口口口口 |--③-|
60
口口口口 |----|
口口口口 |①---|
口口口口 |②---|
口③②① |③---|
61
口③口③ |①---|
①②口口 |②---|
口④口④ |③---|
口口口口 |④---|
62
口口①口 |①---|
④③④口 |--②-|
口口①口 |--③-|
②③②口 |--④-|
63
③③③③ |----|
口口②口 |--①-|
口口口口 |--②-|
口①②① |--③-|
64
口口口口 |----|
口口口口 |①---|
口口口口 |②---|
①②③口 |③---|
65
口口口口 |①---|
口①①口 |----|
口①①口 |②---|
②口口② |----|
66
口③口口 |①---|
①①①① |②---|
口口口口 |③---|
②④④口 |④---|
67
口口③口 |①---|
口①①口 |②---|
口口口口 |③---|
口④④② |④---|
68
口③口口 |①---|
①①①① |②---|
口口口口 |③---|
②④④口 |④---|
69
④口③口 |①---|
口①①口 |②---|
④口口口 |③---|
口口口② |--④-|

不確定度: 0

最終更新:2016年10月16日 02:14