KAMAITACHI
DJ TECHNORCH fw. GUHROOVY

BASIC

Level: 5
BPM: 165
Notes: 428

1
口口口口 |----|
口口口口 |----|
口口口口 |----|
口口口口 |----|
2
口口口口 |----|
口口口口 |----|
口口口口 |----|
口口口口 |----|
3
口口口口 |①---|
口口口口 |②---|
口③口④ |③---|
①口②口 |④---|
4
口③口④ |①---|
①口②口 |②---|
口口口口 |③---|
口口口口 |④---|
5
口口口口 |①---|
口口口口 |②---|
口③口④ |③---|
①口②口 |④---|
6
口③口④ |①---|
①口②口 |②---|
口口口口 |③---|
口口口口 |④---|
7
口④口口 |①---|
口③口口 |②---|
口②口口 |③---|
口①口口 |④---|
8
口口④口 |①---|
口口③口 |②---|
口口②口 |③---|
口口①口 |④---|
9
④口口口 |①---|
③口口口 |②---|
②口口口 |③---|
①口口口 |④---|
10
口口口④ |①---|
口口口③ |②---|
口口口② |③---|
口口口① |④---|
11
口口口口 |①---|
口①①口 |----|
口①①口 |----|
口口口口 |----|
12
①口口口 |①---|
口口口口 |----|
口口口口 |----|
口口口口 |----|
13
口口口口 |①---|
口口口口 |----|
口口口口 |----|
口口口① |----|
14
口口口口 |①---|
口口口口 |----|
口口口口 |----|
①口口口 |----|
15
②口口口 |①---|
②①①口 |----|
口①①口 |②---|
口口口口 |----|
16
口口口② |①---|
口①口② |----|
口口口口 |②---|
口口口口 |----|
17
口④口口 |①---|
口口③口 |②---|
口②口口 |③---|
口①①口 |④---|
18
④④④④ |①---|
口③②① |②---|
口口口口 |③---|
口口口口 |④---|
19
口⑤⑤口 |①---|
①②④③ |②---|
口口口口 |③---|
口口口口 |④-⑤-|
20
口⑤⑤口 |①---|
①②④③ |②---|
口口口口 |③---|
口口口口 |④-⑤-|
21
口⑤⑤口 |①---|
①②④③ |②---|
口口口口 |③---|
口口口口 |④-⑤-|
22
口⑤⑤口 |①---|
①②④③ |②---|
口口口口 |③---|
口口口口 |④-⑤-|
23
口口口口 |①---|
口⑤⑤口 |②---|
①②④③ |③---|
口口口口 |④-⑤-|
24
口口口口 |①---|
口口口口 |②---|
口⑤⑤口 |③---|
①②④③ |④-⑤-|
25
口⑤⑤口 |①---|
①②④③ |②---|
口口口口 |③---|
口口口口 |④-⑤-|
26
④口口④ |①---|
③口口③ |②---|
②口口② |③---|
①口口① |④---|
27
④⑤口口 |①---|
口口③口 |②---|
口②口口 |③---|
口①①口 |④-⑤-|
28
口口①口 |①---|
口②口口 |②---|
口口③口 |③---|
④⑤口口 |④-⑤-|
29
④⑤口口 |①---|
口口③口 |②---|
口②口口 |③---|
口口①口 |④-⑤-|
30
口口①口 |①---|
口②口口 |②---|
口口③口 |③---|
④⑤口口 |④-⑤-|
31
④⑤口口 |①---|
口口③口 |②---|
口②口口 |③---|
口口①口 |④-⑤-|
32
口口①口 |①---|
口②口口 |②---|
口口③口 |③---|
④⑤口口 |④-⑤-|
33
④⑤口口 |①---|
口口③口 |②---|
口②口口 |③---|
口口①口 |④-⑤-|
34
口口③① |①---|
口口③① |②---|
②④口口 |③---|
②④口口 |④---|
35
口口口口 |①---|
口①口口 |----|
口口①口 |----|
口口口口 |----|
36
口口口口 |----|
口口口口 |----|
口口口口 |----|
口口口口 |----|
37
口口口口 |----|
口口口口 |----|
口口口口 |----|
口口口口 |----|
38
口口口口 |----|
口口口口 |----|
口口口口 |----|
口口口口 |----|
39
口口口口 |①---|
②③⑥⑤ |②-③-|
口口口口 |④---|
①口口④ |⑤-⑥-|
40
②③口口 |①---|
口口口口 |②-③-|
①④④口 |④---|
口⑤⑤口 |⑤---|
41
口口口口 |①---|
②③⑥⑤ |②-③-|
口口口口 |④---|
①口口④ |⑤-⑥-|
42
②③口口 |①---|
口口口口 |②-③-|
①④④口 |④---|
口⑤⑤口 |⑤---|
43
口口口口 |①---|
②③⑥⑤ |②-③-|
口口口口 |④---|
①口口④ |⑤-⑥-|
44
②③口口 |①---|
口口口口 |②-③-|
①④④口 |④---|
口⑤⑤口 |⑤---|
45
口口口口 |①---|
②③⑥⑤ |②-③-|
口口口口 |④---|
①口口④ |⑤-⑥-|
46
②③口口 |①---|
口口口口 |②-③-|
①④④口 |④---|
口⑤⑤口 |⑤---|
47
⑧口口⑦ |①-②-|
⑥口口⑤ |③-④-|
④口口③ |⑤-⑥-|
②口口① |⑦-⑧-|
48
口④⑤口 |①-②-|
口⑥③口 |③-④-|
口②⑦口 |⑤-⑥-|
口⑧①口 |⑦-⑧-|
49
⑧口口⑦ |①-②-|
⑥口口⑤ |③-④-|
④口口③ |⑤-⑥-|
②口口① |⑦-⑧-|
50
口④⑤口 |①-②-|
口⑥③口 |③-④-|
口②⑦口 |⑤-⑥-|
口⑧①口 |⑦-⑧-|
51
②④④② |①---|
口口口口 |②---|
①③③① |③---|
口口口口 |④---|
52
②④④② |①---|
口口口口 |②---|
①③③① |③---|
口口口口 |④---|
53
②④④② |①---|
口口口口 |②---|
①③③① |③---|
口口口口 |④---|
54
②④④② |①---|
口口口口 |②---|
①③③① |③---|
口口口口 |④---|
55
口口口口 |①---|
口口口口 |--②-|
口③③口 |----|
②②①① |③---|
56
口③③口 |①---|
②②①① |--②-|
口口口口 |----|
口口口口 |③---|
57
②口口① |①---|
④②①③ |②---|
口④③口 |③---|
口口口口 |④---|
58
口口口口 |①---|
口③③口 |②---|
②口口① |③---|
口②①口 |----|
59
④③②① |①---|
口口口口 |②---|
口口口口 |③---|
口口口口 |④---|
60
口口口口 |①---|
④③②① |②---|
口口口口 |③---|
口口口口 |④---|
61
口口口口 |①---|
口口口口 |----|
①①①① |----|
口口口口 |----|
62
口口口口 |----|
口口口口 |----|
口口口口 |----|
口口口口 |----|
63
口口口口 |①---|
②③⑥⑤ |②-③-|
口口口口 |④---|
①口口④ |⑤-⑥-|
64
②③口口 |①---|
口口口口 |②-③-|
①④④口 |④---|
口⑤⑤口 |⑤---|
65
口口口口 |①---|
②③⑥⑤ |②-③-|
口口口口 |④---|
①口口④ |⑤-⑥-|
66
②③口口 |①---|
口口口口 |②-③-|
①④④口 |④---|
口⑤⑤口 |⑤---|
67
口口口口 |①---|
②③⑥⑤ |②-③-|
口口口口 |④---|
①口口④ |⑤-⑥-|
68
②③口口 |①---|
口口口口 |②-③-|
①④④口 |④---|
口⑤⑤口 |⑤---|
69
口口口口 |①---|
②③⑥⑤ |②-③-|
口口口口 |④---|
①口口④ |⑤-⑥-|
70
②③口口 |①---|
口口口口 |②-③-|
①④④口 |④---|
口⑤⑤口 |⑤---|
71
⑧口口⑦ |①-②-|
⑥口口⑤ |③-④-|
④口口③ |⑤-⑥-|
②口口① |⑦-⑧-|
72
口④⑤口 |①-②-|
口⑥③口 |③-④-|
口②⑦口 |⑤-⑥-|
口⑧①口 |⑦-⑧-|
73
⑧口口⑦ |①-②-|
⑥口口⑤ |③-④-|
④口口③ |⑤-⑥-|
②口口① |⑦-⑧-|
74
口④⑤口 |①-②-|
口⑥③口 |③-④-|
口②⑦口 |⑤-⑥-|
口⑧①口 |⑦-⑧-|
75
口口⑤口 |①-②-|
⑥④口① |③-④-|
②口⑦口 |⑤-⑥-|
口⑧③口 |⑦-⑧-|
76
②口口口 |①-②-|
口⑧③① |③-④-|
口④⑦口 |⑤-⑥-|
⑥口口⑤ |⑦-⑧-|
77
口⑥口① |①-②-|
②口⑤口 |③-④-|
口口⑦③ |⑤-⑥-|
⑧④口口 |⑦-⑧-|
78
口口⑤口 |①-②-|
④⑥口① |③-④-|
口②口口 |⑤-⑥-|
⑧口③⑦ |⑦-⑧-|
79
口口口口 |①---|
口口口口 |----|
口①①口 |----|
口口口口 |----|

不確定度: 0

最終更新:2016年10月04日 20:39