KAMAITACHI
DJ TECHNORCH fw. GUHROOVY

ADVANCED

Level: 9
BPM: 165
Notes: 820

1
口口口口 |----|
口口口口 |----|
口口口口 |----|
口口口口 |----|
2
口口⑥口 |①---|
①④口② |②---|
①⑤口② |③-④-|
口口③口 |⑤-⑥-|
3
①①口口 |①---|
口口②② |②---|
③③口口 |③---|
口口④④ |④---|
4
口口①① |①---|
②②口口 |②---|
口口③③ |③---|
④④口⑤ |④-⑤-|
5
②②④④ |①---|
口口口口 |②---|
①口口③ |③---|
口口口口 |④---|
6
口口口口 |①---|
①口口③ |②---|
口口口口 |③---|
②②④④ |④---|
7
口口④⑥ |①-②-|
⑦口②口 |③-④-|
口①口⑧ |⑤-⑥-|
⑤③口口 |⑦-⑧-|
8
⑤①④口 |①-②-|
口口口⑧ |③-④-|
⑦口口口 |⑤-⑥-|
口③②⑥ |⑦-⑧-|
9
口③口⑥ |①-②-|
口⑦②口 |③-④-|
口①⑧口 |⑤-⑥-|
⑤口④口 |⑦-⑧-|
10
⑦③口口 |①-②-|
口口⑥② |③-④-|
①⑤口口 |⑤-⑥-|
口口④⑧ |⑦-⑧-|
11
口⑤④③ |①-②-|
⑧①口⑩ |③④⑤-|
口⑥②口 |⑥-⑦⑧|
⑦⑥口⑨ |-⑨⑩-|
12
口⑤④③ |①-②-|
⑧①口⑩ |③④⑤-|
口⑥②口 |⑥-⑦⑧|
⑦⑥口⑨ |-⑨⑩-|
13
口⑤④③ |①-②-|
⑧①口⑩ |③④⑤-|
口⑥②口 |⑥-⑦⑧|
⑦⑥口⑨ |-⑨⑩-|
14
口⑤④③ |①-②-|
⑧①口⑩ |③④⑤-|
口⑥②口 |⑥-⑦⑧|
⑦⑥口⑨ |-⑨⑩-|
15
口⑤④③ |①-②-|
⑧①②⑩ |③④⑤-|
②⑥口① |⑥-⑦⑧|
⑦⑥口⑨ |-⑨⑩-|
16
口⑤④③ |①-②-|
⑧①②⑩ |③④⑤-|
②⑥口① |⑥-⑦⑧|
⑦⑥口⑨ |-⑨⑩-|
17
口⑤④③ |①-②-|
⑧①②⑩ |③④⑤-|
②⑥口① |⑥-⑦⑧|
⑦⑥口⑨ |-⑨⑩-|
18
①⑦⑩④ |①②③④|
⑬⑪⑥⑬ |⑤⑥⑦⑧|
③⑨⑫⑧ |⑨⑩⑪⑫|
⑬⑤②⑬ |⑬---|
19
①③口① |①-②-|
⑩口④⑧ |③④⑤-|
⑥口⑥⑤ |⑥-⑦⑧|
⑦②②⑨ |-⑨⑩-|
20
①③口① |①-②-|
⑩口④⑧ |③④⑤-|
⑥口⑥⑤ |⑥-⑦⑧|
⑦②②⑨ |-⑨⑩-|
21
①③口① |①-②-|
⑩口④⑧ |③④⑤-|
⑥口⑥⑤ |⑥-⑦⑧|
⑦②②⑨ |-⑨⑩-|
22
①③口① |①-②-|
⑩口④⑧ |③④⑤-|
⑥口⑥⑤ |⑥-⑦⑧|
⑦②②⑨ |-⑨⑩-|
23
①③口① |①-②-|
⑩口④⑧ |③④⑤-|
⑥口⑥⑤ |⑥-⑦⑧|
⑦②②⑨ |-⑨⑩-|
24
①③口① |①-②-|
⑩口④⑧ |③④⑤-|
⑥口⑥⑤ |⑥-⑦⑧|
⑦②②⑨ |-⑨⑩-|
25
①③口① |①-②-|
⑩口④⑧ |③④⑤-|
⑥口⑥⑤ |⑥-⑦⑧|
⑦②②⑨ |-⑨⑩-|
26
②①②① |①-②-|
口①②口 |③④⑤⑥|
③④⑤⑥
口口口口

口口口口
⑨⑬⑭⑩
口口口口 |⑦⑧⑨⑩|
⑦⑪⑫⑧ |⑪⑫⑬⑭|
27
②⑧⑥③ |①-②-|
口口口口 |③-④-|
①⑨⑦口 |⑤-⑥⑦|
⑤⑩口④ |⑧⑨⑩-|
28
②⑥⑧③ |①-②-|
口⑦⑨口 |③-④-|
⑤口口④ |⑤-⑥⑦|
口口①⑩ |⑧⑨⑩-|
29
口口口④ |①-②-|
口口口口 |③-④-|
口②口口
③①口口

⑧口⑥口
口口口口
⑨口⑦口 |⑤-⑥⑦|
口⑩⑤口 |⑧⑨⑩-|
30
口②口③ |①-②-|
口口口口 |③-④-|
口口口④
口口口①

⑥口⑤口
口⑥口⑤
⑧口⑦口 |⑤-⑥-|
口⑧口⑦ |⑦-⑧-|
31
口②口④ |①-②-|
口口口口 |③-④-|
口口口口
①口③口

口口⑪口
口⑥⑤⑪
口⑧⑦口 |⑤⑥⑦⑧|
⑩口口⑨ |⑨⑩⑪-|
32
④口⑪② |①-②-|
口⑥⑤⑪ |③-④-|
口⑧⑦口 |⑤⑥⑦⑧|
⑩③①⑨ |⑨⑩⑪-|
33
②口⑪④ |①-②-|
口⑥⑤⑪ |③-④-|
口⑧⑦口 |⑤⑥⑦⑧|
⑩①③⑨ |⑨⑩⑪-|
34
⑥⑯⑮⑤ |①②③④|
⑭⑧⑦⑬ |⑤⑥⑦⑧|
④⑩⑨③ |⑨⑩⑪⑫|
⑫②①⑪ |⑬⑭⑮⑯|
35
口口口口 |①---|
口口口口 |----|
口口口① |----|
口口①口 |----|
36
口口口口 |----|
口口口口 |----|
口口口口 |----|
口口口口 |----|
37
口口口口 |----|
口口口口 |----|
口口口口 |----|
口口口口 |----|
38
口口口口 |----|
口口口口 |----|
口口口口 |----|
口口口口 |----|
39
④口口口 |①②③-|
口⑥口口 |④⑤-⑥|
①②③口
口⑤口口

口口口⑨
口口⑧⑦
口口⑪口 |-⑦⑧-|
口口⑩口 |⑨⑩-⑪|
40
③口⑨⑩ |-①②-|
口⑤⑧⑦ |③④-⑤|
①②口⑥ |-⑥⑦-|
口④口口 |⑧⑨-⑩|
41
④口口口 |①②③-|
口⑥口口 |④⑤-⑥|
①②③口
口⑤口口

口口口⑨
口口⑧⑦
口口⑪口 |-⑦⑧-|
口口⑩口 |⑨⑩-⑪|
42
③口⑨⑩ |-①②-|
口⑤⑧⑦ |③④-⑤|
①②口⑥ |-⑥⑦-|
口④口口 |⑧⑨-⑩|
43
④口口口 |①②③-|
口⑥口口 |④⑤-⑥|
①②③口
口⑤口口

口口口⑨
口口⑧⑦
口口⑪口 |-⑦⑧-|
口口⑩口 |⑨⑩-⑪|
44
③口⑨⑩ |-①②-|
口⑤⑧⑦ |③④-⑤|
①②口⑥ |-⑥⑦-|
口④口口 |⑧⑨-⑩|
45
④口口口 |①②③-|
口⑥口口 |④⑤-⑥|
①②③口
口⑤口口

口口口⑨
口口⑧⑦
口口⑪口 |-⑦⑧-|
口口⑩口 |⑨⑩-⑪|
46
③口口口 |-①②-|
口⑤口口 |③④-⑤|
①②口口
口④口口

口口口口
⑨口口⑧
⑪口口⑩ |⑥⑦⑧⑨|
⑦口口⑥ |⑩⑪--|
47
④口①口 |①②③④|
口⑧⑤口 |⑤⑥⑦⑧|
口②口口
⑥口③⑦

口⑭⑮⑨
⑩口口口
⑯口⑬⑪ |⑨⑩⑪⑫|
口⑫口口 |⑬⑭⑮⑯|
48
④⑭⑮⑨ |①②③④|
⑩⑧⑤③ |⑤⑥⑦⑧|
⑯②⑪⑦ |⑨⑩⑪⑫|
⑥⑫①⑬ |⑬⑭⑮⑯|
49
④口口口 |①②③④|
口⑧⑤① |⑤⑥⑦⑧|
口②口⑦
⑥口③口

口⑫⑮⑨
⑩口口口
⑭⑯⑪口 |⑨⑩⑪⑫|
口口口⑬ |⑬⑭⑮⑯|
50
②口口口 |①②③④|
⑧口⑤③ |⑤⑥⑦⑧|
口口口⑦
④⑥①口

⑯⑫口⑨
口⑩口口
⑭口⑬口 |⑨⑩⑪⑫|
口口⑮⑪ |⑬⑭⑮⑯|
51
④③①② |①---|
③口口① |②---|
口口口口 |③---|
口口口口 |④---|
52
口口口口 |①---|
口口口口 |②---|
③口口① |③---|
④③①② |④---|
53
④③①② |①---|
③口口① |②---|
口口口口 |③---|
口口口口 |④---|
54
口④④口 |①---|
口②②口 |②---|
口①①口 |③---|
口③③口 |④---|
55
⑪⑫⑬口 |①②③④|
口口⑩⑤ |⑤-⑥⑦|
④⑨⑧③ |⑧⑨⑩-|
②⑦⑥① |⑪⑫⑬-|
56
口⑬⑫⑪ |①②③④|
⑤⑩口口 |⑤-⑥⑦|
③⑧⑨④ |⑧⑨⑩-|
①⑥⑦② |⑪⑫⑬-|
57
⑫⑪⑩口 |①②③-|
①⑦⑧⑨ |④⑤⑥-|
②口口口 |⑦⑧⑨-|
③⑥⑤④ |⑩⑪⑫-|
58
⑪口口口 |①②③-|
③⑩口⑧ |④⑤⑥-|
②⑥⑤④ |⑦⑧-⑨|
①⑨口⑦ |⑩-⑪-|
59
⑨②⑩① |①-②-③-|
④⑪③⑫ |④-⑤-⑥-|
口⑥口⑤ |⑦-⑧-⑨-|
⑧口⑦口 |⑩-⑪-⑫-|
60
口⑥口⑤ |①-②-③-|
⑧口⑦口 |④-⑤-⑥-|
①⑩②⑨ |⑦-⑧-⑨-|
⑫③⑪④ |⑩-⑪-⑫-|
61
①口口口 |①---|
口①口口 |----|
口口①口 |----|
口口口① |----|
62
口口口口 |----|
口口口口 |----|
口口口口 |----|
口口口口 |----|
63
④口口口 |①②③-|
口⑥口口 |④⑤-⑥|
①②③口
口⑤口口

口口口⑨
口口⑧⑦
口口⑪口 |-⑦⑧-|
口口⑩口 |⑨⑩-⑪|
64
③口⑨⑩ |-①②-|
口⑤⑧⑦ |③④-⑤|
①②口⑥ |-⑥⑦-|
口④口口 |⑧⑨-⑩|
65
④口口口 |①②③-|
口⑥口口 |④⑤-⑥|
①②③口
口⑤口口

口口口⑨
口口⑧⑦
口口⑪口 |-⑦⑧-|
口口⑩口 |⑨⑩-⑪|
66
③口⑨⑩ |-①②-|
口⑤⑧⑦ |③④-⑤|
①②口⑥ |-⑥⑦-|
口④口口 |⑧⑨-⑩|
67
④口口口 |①②③-|
口⑥口口 |④⑤-⑥|
①②③口
口⑤口口

口口口⑨
口口⑧⑦
口口⑪口 |-⑦⑧-|
口口⑩口 |⑨⑩-⑪|
68
③口⑨⑩ |-①②-|
口⑤⑧⑦ |③④-⑤|
①②口⑥ |-⑥⑦-|
口④口口 |⑧⑨-⑩|
69
④口口口 |①②③-|
口⑥口口 |④⑤-⑥|
①②③口
口⑤口口

口口口⑨
口口⑧⑦
口口⑪口 |-⑦⑧-|
口口⑩口 |⑨⑩-⑪|
70
③⑥⑥口 |-①②-|
口⑤口口 |③④-⑤|
①②口口 |⑥---|
⑦④口⑦ |⑦---|
71
④口⑤① |①-②-|
⑨口②⑤ |③-④-|
⑦⑦口① |⑤-⑥-|
⑧③③⑥ |⑦-⑧⑨|
72
口③口④ |①-②-|
⑩③①⑨ |③-④-|
⑥⑧⑦① |⑤-⑥-|
口②⑤⑤ |⑦⑧⑨⑩|
73
⑤⑨①⑥ |①-②-|
口④①口 |③-④-|
⑤⑧口② |⑤-⑥-|
③③⑦⑦ |⑦-⑧⑨|
74
口口口口 |①-②-|
②③口① |③-④-|
③口④①
口口口口

⑥口⑤⑤
⑩口口⑨
口口口口 |⑤-⑥-|
⑧口口⑦ |⑦⑧⑨⑩|
75
口③口口 |①-②-|
口口③口 |③-④-|
④①②口
口①口口

口口⑤⑤
⑨⑥口口
口口口口 |⑤-⑥-|
⑧⑦口⑦ |⑦-⑧⑨|
76
⑧③③⑦ |①-②-|
口④⑤② |③-④-|
⑩①①⑨ |⑤-⑥-|
口⑥⑤口 |⑦⑧⑨⑩|
77
⑫⑧①⑮ |①②③④|
④⑭⑨⑤ |⑤⑥⑦⑧|
⑯②⑦⑬ |⑨⑩⑪⑫|
⑥⑩⑪③ |⑬⑭⑮⑯|
78
口⑧①口 |①②③④|
②口口⑤ |⑤⑥⑦⑧|
口④⑦口
⑥口口③

⑫口口⑮
⑯口⑨口
⑭口口⑬ |⑨⑩⑪⑫|
口⑩⑪口 |⑬⑭⑮⑯|
79
口口①口 |①---|
口口口① |----|
口口口口 |----|
口口口口 |----|

不確定度: 0

最終更新:2016年10月04日 20:38