KAMAITACHI
DJ TECHNORCH fw. GUHROOVY

EXTREME

Level: 10
BPM: 165
Notes: 906

1
口口口口 |----|
口口口口 |----|
口口口口 |----|
口口口口 |----|
2
⑦⑧⑩⑨ |①-②③|
①⑪②③ |④-⑤⑥|
④⑪⑤⑥ |⑦⑧⑨⑩|
口口口⑫ |⑪-⑫-|
3
⑤口口⑥ |①-②-|
①口口② |③-④-|
③口口④ |⑤-⑥-|
⑦口口⑧ |⑦-⑧-|
4
⑤口口⑥ |①-②-|
①口口② |③-④-|
③口口④ |⑤-⑥-|
⑦口口⑧ |⑦-⑧-|
5
⑤口口⑥ |①-②-|
①口口② |③-④-|
③口口④ |⑤-⑥-|
⑦口口⑧ |⑦-⑧-|
6
⑤口口⑥ |①-②-|
①口口② |③-④-|
③口口④ |⑤-⑥⑦|
⑧⑦口⑨ |⑧-⑨-|
7
口①②口 |①②③④|
⑥③④⑦ |⑤-⑥⑦|
⑧⑤⑬⑨ |⑧⑨⑩-|
⑩⑪⑫口 |⑪⑫⑬-|
8
①⑥⑦② |①②③④|
③⑧⑨④ |⑤-⑥⑦|
⑤⑩口⑬ |⑧⑨⑩-|
⑪口口⑫ |⑪⑫⑬-|
9
③⑤口④ |①②③④|
①⑩口② |⑤-⑥⑦|
口⑧⑨⑬ |⑧⑨⑩-|
⑪⑥⑦⑫ |⑪⑫⑬-|
10
①口口② |①②③④|
③⑩口④ |⑤-⑥⑦|
⑤⑧⑨⑬ |⑧⑨⑩-|
⑪⑥⑦⑫ |⑪⑫⑬-|
11
⑧①⑩⑤ |①-②-|
口口口④ |③④⑤-|
③⑦口⑨ |⑥-⑦⑧|
⑥②⑥口 |-⑨⑩-|
12
⑧①⑩⑤ |①-②-|
口口口④ |③④⑤-|
③⑦口⑨ |⑥-⑦⑧|
⑥②⑥口 |-⑨⑩-|
13
⑧①⑩⑤ |①-②-|
口口口④ |③④⑤-|
③⑦口⑨ |⑥-⑦⑧|
⑥②⑥口 |-⑨⑩-|
14
⑧①⑩⑤ |①-②-|
口口口④ |③④⑤-|
③⑦口⑨ |⑥-⑦⑧|
⑥②⑥口 |-⑨⑩-|
15
⑧①⑩⑤ |①-②-|
口口①④ |③④⑤-|
③⑦口⑨ |⑥-⑦⑧|
⑥②⑥口 |-⑨⑩-|
16
⑧①⑩⑤ |①-②-|
口口口④ |③④⑤-|
③⑦口⑨ |⑥-⑦⑧|
⑥②⑥口 |-⑨⑩-|
17
⑧①⑩⑤ |①-②-|
口口口④ |③④⑤-|
③⑦口⑨ |⑥-⑦⑧|
⑥②⑥口 |-⑨⑩-|
18
⑪③⑫口 |①②③④|
①⑨⑥④ |⑤⑥⑦⑧|
⑦⑬口⑩ |⑨⑩⑪⑫|
口⑤⑧② |⑬---|
19
⑧①⑪⑤ |①-②-|
①③口④ |③④⑤-|
③⑦口⑩ |⑥-⑦⑧|
⑥②⑥⑨ |⑨⑩⑪-|
20
⑧①⑪⑤ |①-②-|
①③口④ |③④⑤-|
③⑦口⑩ |⑥-⑦⑧|
⑥②⑥⑨ |⑨⑩⑪-|
21
⑧①⑪⑤ |①-②-|
①③口④ |③④⑤-|
③⑦口⑩ |⑥-⑦⑧|
⑥②⑥⑨ |⑨⑩⑪-|
22
⑧①⑪⑤ |①-②-|
①③口④ |③④⑤-|
③⑦口⑩ |⑥-⑦⑧|
⑥②⑥⑨ |⑨⑩⑪-|
23
⑧①⑪⑤ |①-②-|
①③口④ |③④⑤-|
③⑦口⑩ |⑥-⑦⑧|
⑥②⑥⑨ |⑨⑩⑪-|
24
⑧①⑪⑤ |①-②-|
①③口④ |③④⑤-|
③⑦口⑩ |⑥-⑦⑧|
⑥②⑥⑨ |⑨⑩⑪-|
25
⑧①⑪⑤ |①-②-|
①③口④ |③④⑤-|
③⑦口⑩ |⑥-⑦⑧|
⑥②⑥⑨ |⑨⑩⑪-|
26
口③口② |①-②-|
①②⑥② |③④⑤⑥|
①⑤①口
口口④口

⑨口口口
⑪⑬口⑭
口口⑫⑧ |⑦⑧⑨⑩|
⑦口口⑩ |⑪⑫⑬⑭|
27
⑩⑤口② |①②③④|
⑧⑫⑥⑪ |⑤⑥⑦-|
③⑦⑬口 |⑧⑨⑩⑪|
⑭①④⑨ |⑫⑬⑭-|
28
⑩⑤口② |①②③④|
⑧⑫⑥⑪ |⑤⑥⑦-|
③⑦⑬口 |⑧⑨⑩⑪|
⑭①④⑨ |⑫⑬⑭-|
29
⑩⑤口② |①②③④|
⑧⑫⑥⑪ |⑤⑥⑦-|
③⑦⑬口 |⑧⑨⑩⑪|
⑭①④⑨ |⑫⑬⑭-|
30
⑩⑤口② |①②③④|
⑧⑫⑥⑪ |⑤⑥⑦-|
③⑦⑬口 |⑧⑨⑩⑪|
⑭①④⑨ |⑫⑬⑭-|
31
⑩⑤口② |①②③④|
⑧⑫⑥⑪ |⑤⑥⑦-|
③⑦⑬口 |⑧⑨⑩⑪|
⑭①④⑨ |⑫⑬⑭-|
32
⑩⑤口② |①②③④|
⑧⑫⑥⑪ |⑤⑥⑦-|
③⑦⑬口 |⑧⑨⑩⑪|
⑭①④⑨ |⑫⑬⑭-|
33
⑩⑤口② |①②③④|
⑧⑫⑥⑪ |⑤⑥⑦-|
③⑦⑬口 |⑧⑨⑩⑪|
⑭①④⑨ |⑫⑬⑭-|
34
⑦③④⑧ |①②③④|
口口口口 |⑤⑥⑦⑧|
⑤口口⑥
口①②口

口口口口
⑨⑮口⑩
口口⑭口 |⑨⑩⑪⑫|
⑪⑬口⑫ |⑬⑭⑮-|
35
口①口口 |①---|
口口口口 |----|
口口口口 |----|
口口①口 |----|
36
口口口口 |----|
口口口口 |----|
口口口口 |----|
口口口口 |----|
37
口口口口 |----|
口口口口 |----|
口口口口 |----|
口口口口 |----|
38
口口口口 |----|
口口口口 |----|
口口口口 |----|
口口口口 |----|
39
⑤口口口 |①②③-|
口口⑥③ |④⑤-⑥|
口口口②
①④口口

口⑩⑧口
口口口⑪
口口口口 |-⑦⑧-|
⑨口口⑦ |⑨⑩-⑪|
40
④⑨⑦② |-①②-|
口口⑤口 |③④-⑤|
⑩口⑧口 |-⑥⑦-|
口③①⑥ |⑧⑨-⑩|
41
⑤口口口 |①②③-|
口口⑥③ |④⑤-⑥|
口口口②
①④口口

口⑩⑧口
口口口⑪
口口口口 |-⑦⑧-|
⑨口口⑦ |⑨⑩-⑪|
42
④⑨⑦② |-①②-|
口口⑤口 |③④-⑤|
⑩口⑧口 |-⑥⑦-|
口③①⑥ |⑧⑨-⑩|
43
⑤口口口 |①②③-|
口口⑥③ |④⑤-⑥|
口口口②
①④口口

口⑩⑧口
口口口⑪
口口口口 |-⑦⑧-|
⑨口口⑦ |⑨⑩-⑪|
44
④⑨⑦② |-①②-|
口口⑤口 |③④-⑤|
⑩口⑧口 |-⑥⑦-|
口③①⑥ |⑧⑨-⑩|
45
⑤口口口 |①②③-|
口口⑥③ |④⑤-⑥|
口口口②
①④口口

口⑩⑧口
口口口⑪
口口口口 |-⑦⑧-|
⑨口口⑦ |⑨⑩-⑪|
46
④⑨⑫② |-①②-|
⑦口⑤口 |③④-⑤|
口⑪⑥⑩ |-⑥⑦⑧|
口③①⑧ |⑨⑩⑪⑫|
47
⑥⑦⑩③ |①②③-|
⑫④④② |④-⑤⑥|
⑪⑩⑦⑨ |⑦⑧⑨-|
⑤①①⑧ |⑩-⑪⑫|
48
⑥⑨⑬③ |①②③-|
⑩④④② |④-⑤⑥|
⑫⑦⑦⑪ |⑦⑧⑨-|
⑤①①⑧ |⑩⑪⑫⑬|
49
⑥⑦⑩③ |①②③-|
⑫④④② |④-⑤⑥|
⑪⑩⑦⑨ |⑦⑧⑨-|
⑤①①⑧ |⑩-⑪⑫|
50
⑥⑨⑬③ |①②③-|
⑩④④② |④-⑤⑥|
⑫⑦⑦⑪ |⑦⑧⑨-|
⑤①①⑧ |⑩⑪⑫⑬|
51
⑥⑦⑩③ |①②③-|
⑫④④② |④-⑤⑥|
⑪⑩⑦⑨ |⑦⑧⑨-|
⑤①①⑧ |⑩-⑪⑫|
52
⑥⑨⑬③ |①②③-|
⑩④④② |④-⑤⑥|
⑫⑦⑦⑪ |⑦⑧⑨-|
⑤①①⑧ |⑩⑪⑫⑬|
53
⑥⑦⑩③ |①②③-|
⑫④④② |④-⑤⑥|
⑪⑩⑦⑨ |⑦⑧⑨-|
⑤①①⑧ |⑩-⑪⑫|
54
⑥⑨⑬③ |①②③-|
⑩④④② |④-⑤⑥|
⑫⑦⑦⑪ |⑦⑧⑨-|
⑤①①⑧ |⑩⑪⑫⑬|
55
⑤口口⑬ |①②③④|
⑩③④⑫ |⑤-⑥⑦|
口⑧⑨⑪ |⑧⑨⑩-|
⑥①②⑦ |⑪⑫⑬-|
56
⑤口口⑬ |①②③④|
⑩③④⑫ |⑤-⑥⑦|
口⑧⑨⑪ |⑧⑨⑩-|
⑥①②⑦ |⑪⑫⑬-|
57
⑫⑥③⑨ |①②③-|
⑪⑤②⑧ |④⑤⑥-|
口口口口 |⑦⑧⑨-|
⑦①④⑩ |⑩⑪⑫-|
58
⑨⑥③⑩ |①②③-|
口⑤②口 |④⑤⑥-|
口⑪⑪口 |⑦⑧-⑨|
⑦①④⑧ |⑩-⑪-|
59
⑦⑥③⑩ |①-②-③-|
①⑤②④ |④-⑤-⑥-|
⑦⑫⑨⑩ |⑦-⑧-⑨-|
⑪①④⑧ |⑩-⑪-⑫-|
60
⑦⑥③⑩ |①-②-③-|
①⑤②④ |④-⑤-⑥-|
⑦⑫⑨⑩ |⑦-⑧-⑨-|
⑪①④⑧ |⑩-⑪-⑫-|
61
口口口口 |①---|
①口口① |----|
口口口口 |----|
口口口口 |----|
62
口口口口 |----|
口口口口 |----|
口口口口 |----|
口口口口 |----|
63
⑤口口口 |①②③-|
口口⑥③ |④⑤-⑥|
口口口②
①④口口

口⑩⑧口
口口口⑪
口口口口 |-⑦⑧-|
⑨口口⑦ |⑨⑩-⑪|
64
④⑨⑦② |-①②-|
口口⑤口 |③④-⑤|
⑩口⑧口 |-⑥⑦-|
口③①⑥ |⑧⑨-⑩|
65
⑤口口口 |①②③-|
口口⑥③ |④⑤-⑥|
口口口②
①④口口

口⑩⑧口
口口口⑪
口口口口 |-⑦⑧-|
⑨口口⑦ |⑨⑩-⑪|
66
④⑨⑦② |-①②-|
口口⑤口 |③④-⑤|
⑩口⑧口 |-⑥⑦-|
口③①⑥ |⑧⑨-⑩|
67
⑤口口口 |①②③-|
口口⑥③ |④⑤-⑥|
口口口②
①④口口

口⑩⑧口
口口口⑪
口口口口 |-⑦⑧-|
⑨口口⑦ |⑨⑩-⑪|
68
④⑨⑦② |-①②-|
口口⑤口 |③④-⑤|
⑩口⑧口 |-⑥⑦-|
口③①⑥ |⑧⑨-⑩|
69
⑤口口口 |①②③-|
口口⑥③ |④⑤-⑥|
口口口②
①④口口

口⑩⑧口
口口口⑪
口口口口 |-⑦⑧-|
⑨口口⑦ |⑨⑩-⑪|
70
④口口② |-①②-|
口⑥⑤⑪ |③④-⑤|
口⑧⑦口 |⑥⑦⑧-|
⑨③①⑩ |⑨⑩-⑪|
71
口④口口 |①②③-|
①⑥口口 |④-⑤⑥|
口⑤口③
口口②口

⑫口⑨口
⑪口⑧口
口口口口 |⑦⑧⑨-|
口⑦口⑩ |⑩-⑪⑫|
72
口口口③ |①②③-|
口⑤⑥② |④-⑤⑥|
④口口口
口口①口

口⑫口口
口口口⑬
口⑦⑪⑨ |⑦⑧⑨-|
口⑩口⑧ |⑩⑪⑫⑬|
73
⑤口③口 |①②③-|
①口⑥口 |④-⑤⑥|
口口口口
④口②口

口口口口
⑩口口口
口⑦⑫⑨ |⑦⑧⑨-|
口口⑪⑧ |⑩-⑪⑫|
74
⑪④⑫③ |①②③-|
⑦口⑧② |④-⑤⑥|
⑬⑨⑭⑩ |⑦⑧⑨⑩|
①⑤口⑥ |⑪⑫⑬⑭|
75
口口⑩③ |①②③-|
⑤口⑥② |④-⑤⑥|
口⑪⑫⑨ |⑦⑧⑨-|
①⑦⑧④ |⑩-⑪⑫|
76
口⑩⑪③ |①②③-|
口⑤⑥② |④-⑤⑥|
⑦⑫⑬⑨ |⑦⑧⑨-|
①口⑧④ |⑩⑪⑫⑬|
77
口口⑩③ |①②③-|
口⑤⑥② |④-⑤⑥|
⑦⑪⑫⑨ |⑦⑧⑨-|
口①⑧④ |⑩-⑪⑫|
78
口口口③ |①②③-|
⑤口口② |④-⑤⑥|
口口口⑥
①口口④

口⑦口⑭
口⑬⑧口
⑪口⑩口 |⑦⑧⑨⑩|
口⑨⑫口 |⑪⑫⑬⑭|
79
口口口口 |①---|
口口口口 |----|
口①口口 |----|
口口口口 |----|

不確定度: 0

最終更新:2016年10月04日 20:37