AIR RAID FROM THA UNDAGROUND
GUHROOVY

BASIC

Level: 5
BPM: 180
Notes: 362

1
口口口口 |----|
口口口口 |----|
口口口口 |----|
口口口口 |----|
2
口①口② |①---|
口口口口 |②---|
口口口口 |----|
口口口口 |----|
3
口口口口 |----|
口口口口 |----|
口口口口 |----|
口口口口 |----|
4
口口口口 |①---|
②口①口 |②---|
口口口口 |----|
口口口口 |----|
5
口口口口 |----|
口口口口 |----|
口口口口 |----|
口口口口 |----|
6
口口口口 |①---|
口口口口 |②---|
口①口② |----|
口口口口 |----|
7
口口口口 |----|
口口口口 |----|
口口口口 |----|
口口口口 |----|
8
口口口口 |①---|
口口口口 |②---|
口口口口 |----|
②口①口 |----|
9
口口口口 |----|
口口口口 |----|
口口口口 |----|
口口口口 |----|
10
口口口口 |①---|
口②②口 |----|
口①①口 |②---|
口口口口 |----|
11
口口口③ |①---|
①口口口 |----|
①口口口 |②---|
口口口② |③---|
12
口②②口 |①---|
口口口口 |----|
口口口口 |②---|
口①①口 |----|
13
③口口口 |①---|
口口口① |----|
口口口① |②---|
②口口口 |③---|
14
口口③口 |①---|
口①口口 |----|
口①口口 |②---|
口口②口 |③---|
15
口③口口 |①---|
口口①口 |----|
口口①口 |②---|
口②口口 |③---|
16
口③③口 |①---|
①口口① |----|
①口口① |②---|
口②②口 |③---|
17
①口口② |①---|
口口口口 |②---|
口口口口 |③---|
③口口④ |④---|
18
口③口口 |①---|
口①①口 |----|
口①①口 |②---|
口②口口 |③---|
19
口口③口 |①---|
口①①口 |----|
口①①口 |②---|
口口②口 |③---|
20
口口口③ |①---|
①口口口 |----|
①口口口 |②---|
口口口② |③---|
21
③口口口 |①---|
口口口① |----|
口口口① |②---|
②口口口 |③---|
22
口口③口 |①---|
口①口口 |----|
口①口口 |②---|
口口②口 |③---|
23
口③口口 |①---|
口口①口 |----|
口口①口 |②---|
口②口口 |③---|
24
①口口① |①---|
②口口② |----|
口口口口 |②---|
口口口口 |----|
25
口口口口 |①---|
口③③口 |②---|
②③③② |③---|
①口口① |----|
26
口①①口 |①---|
口口口口 |----|
口口口口 |②---|
②口口③ |③---|
27
②口口③ |①---|
口口口口 |----|
口口口口 |②---|
口①①口 |③---|
28
口口口口 |①---|
口①①口 |----|
②口口③ |②---|
口口口口 |③---|
29
口口口口 |①---|
②口口③ |----|
口①①口 |②---|
口口口口 |③---|
30
口口口口 |①---|
②①①③ |----|
②①①③ |②---|
口口口口 |③---|
31
②①①③ |①---|
口口口口 |----|
口口口口 |②---|
②①①③ |③---|
32
口口口口 |①---|
①口口② |②---|
口口口口 |③---|
③口口④ |④---|
33
④④④④ |①---|
口③③口 |②---|
口②②口 |③---|
口①①口 |④---|
34
口口口口 |①---|
口口口口 |----|
口②③口 |②---|
②①①③ |③---|
35
②①①③ |①---|
口②③口 |----|
口口口口 |②---|
口口口口 |③---|
36
③口口口 |①---|
①③口口 |----|
①②口口 |②---|
②口口口 |③---|
37
口口口③ |①---|
口口③① |----|
口口②① |②---|
口口口② |③---|
38
口口口口 |①---|
口口口口 |----|
口②③口 |②---|
②①①③ |③---|
39
②①①③ |①---|
口②③口 |----|
口口口口 |②---|
口口口口 |③---|
40
口③③口 |①---|
①口口① |----|
①口口① |②---|
口②②口 |③---|
41
④口口④ |①---|
③口口③ |②---|
②口口② |③---|
①口口① |④---|
42
口口口口 |①---|
口口口口 |--②-|
口口口口 |--③-|
③②口① |----|
43
①口②③ |①---|
口口口口 |--②-|
口口口口 |--③-|
口口口口 |----|
44
口口口口 |①---|
口口口口 |--②-|
③②口① |--③-|
口口口口 |----|
45
口口口口 |①---|
①口②③ |--②-|
口口口口 |--③-|
口口口口 |----|
46
①口口口 |①---|
口口口口 |--②-|
②口口口 |--③-|
③口口口 |----|
47
口口口③ |①---|
口口口② |--②-|
口口口口 |--③-|
口口口① |----|
48
口①口口 |①---|
口口口口 |--②-|
口②口口 |--③-|
口③口口 |----|
49
口口③口 |①---|
口口②口 |--②-|
口口口口 |--③-|
口口①口 |----|
50
①②口口 |①---|
口口③④ |②---|
口口口口 |③---|
口口口口 |④---|
51
口口②① |①---|
④③口口 |②---|
口口口口 |③---|
口口口口 |④---|
52
口口口口 |①---|
口口口口 |②---|
①②口口 |③---|
口口③④ |④---|
53
口口口口 |①---|
口口口口 |②---|
口口②① |③---|
④③口口 |④---|
54
口口口口 |①---|
口口③④ |②---|
①②口口 |③---|
口口口口 |④---|
55
口口②① |①---|
④③口口 |②---|
口口口口 |③---|
口口口口 |④---|
56
口口口口 |①---|
口口口口 |②---|
①②口口 |③---|
口口③④ |④---|
57
口口口口 |①---|
④③口口 |②---|
口口②① |③---|
口口口口 |④---|
58
①口口② |①---|
口口口口 |----|
口口口口 |②---|
口口口口 |----|
59
口口口口 |①---|
口口口口 |②---|
口口口口 |③---|
①②③④ |④---|
60
口口口口 |①---|
②口口① |----|
口口口口 |②---|
口口口口 |----|
61
口口口口 |①---|
口口口口 |②---|
④③②① |③---|
口口口口 |④---|
62
①口口② |①---|
口口口口 |----|
口口口口 |②---|
口口口口 |----|
63
口口口口 |①---|
①②③④ |②---|
口口口口 |③---|
口口口口 |④---|
64
口口口口 |①---|
口口口口 |----|
①口口② |②---|
①口口② |----|
65
口口口口 |①---|
口口口口 |----|
口①②口 |②---|
口①②口 |----|
66
口①口口 |①---|
①口口口 |----|
口口口口 |----|
口口口口 |----|
67
口口口口 |①---|
口口口口 |----|
①口口口 |----|
口①口口 |----|
68
口口口口 |①---|
口口口口 |----|
口口口① |----|
口口①口 |----|
69
口口①口 |①---|
口口口① |----|
口口口口 |----|
口口口口 |----|
70
口①口口 |①---|
①口口口 |----|
口口口口 |----|
口口口口 |----|
71
口口口口 |①---|
口口口口 |----|
①口口口 |----|
口①口口 |----|
72
口口口口 |①---|
口口口口 |----|
口口口① |----|
口口①口 |----|
73
口口①口 |①---|
口④④① |②---|
口③③口 |③---|
口②②口 |④---|
74
口①口口 |①---|
②口口口 |②---|
③口口口 |③---|
口④口口 |④---|
75
口口④口 |①---|
口口口③ |②---|
口口口② |③---|
口口①口 |④---|
76
口①口口 |①---|
②口口口 |②---|
③口口口 |③---|
口④口口 |④---|
77
口口口口 |①---|
口口口③ |②---|
口口口② |③---|
口口①口 |----|
78
口①口口 |①---|
②口口口 |②---|
③口口口 |③---|
口④口口 |④---|
79
口口④口 |①---|
口口口③ |②---|
口口口② |③---|
口口①口 |④---|
80
口①口口 |①---|
②口口口 |②---|
③口口口 |③---|
口④口口 |④---|
81
口口口口 |①---|
口③③口 |----|
口②②口 |②---|
口口①口 |③---|
82
口①口口 |①---|
②口口口 |②---|
③口口口 |③---|
口④口口 |④---|
83
口口④口 |①---|
口口口③ |②---|
口口口② |③---|
口口①口 |④---|
84
口①口口 |①---|
②口口口 |②---|
③口口口 |③---|
口④口口 |④---|
85
口口口口 |①---|
口口③③ |②---|
口口②口 |③---|
口口①口 |----|
86
口①口口 |①---|
②口口口 |②---|
③口口口 |③---|
口④口口 |④---|
87
口口④口 |①---|
口口口③ |②---|
口口口② |③---|
口口①口 |④---|
88
口①④口 |①---|
①口口④ |②---|
②口口③ |③---|
口②③口 |④---|
89
口①④口 |①---|
①口口④ |②---|
②口口③ |③---|
口②③口 |④---|
90
口口口口 |①---|
口①①口 |----|
口①①口 |----|
口口口口 |----|


不确定度: 0

最終更新:2012年11月10日 15:16