Daisuke
Y& Co.

BASIC

Level: 3
BPM: 157
Notes: 343

1
口口口口 |----|
口口口口 |----|
口口口口 |----|
口口口口 |----|
2
口口口口 |----|
口口口口 |----|
口口口口 |----|
口口口口 |----|
3
口口口口 |----|
口口口口 |----|
口口口口 |----|
口口口口 |----|
4
口口口口 |----|
口口口口 |----|
口口口口 |----|
口口口口 |----|
5
口口口口 |----|
口口口口 |----|
口口口口 |----|
口口口口 |----|
6
口口口口 |①---|
口口口口 |----|
口②①口 |②---|
口口口口 |----|
7
口口口口 |①---|
口②①口 |----|
口口口口 |②---|
口口口口 |----|
8
口②①口 |①---|
口口口口 |----|
口口口口 |②---|
口口口口 |----|
9
口口口口 |①---|
口①①口 |----|
口口口口 |----|
口口口口 |----|
10
口口口② |①---|
口口口③ |----|
口口①① |②---|
口口口口 |③---|
11
②口口口 |①---|
③口口口 |----|
①①口口 |②---|
口口口口 |③---|
12
口口口口 |①---|
口口口② |----|
口口口③ |②---|
口口①① |③---|
13
口①①口 |①---|
口②②口 |----|
口口口口 |②---|
口口口口 |----|
14
②口口口 |①---|
③口口口 |----|
①①口口 |②---|
口口口口 |③---|
15
口口口② |①---|
口口口③ |----|
口口①① |②---|
口口口口 |③---|
16
口口口口 |①---|
②口口口 |----|
③口口口 |②---|
①①口口 |③---|
17
口口口口 |①---|
口②②口 |----|
口①①口 |②---|
口口口口 |----|
18
口口口① |①---|
口口口② |②---|
口口口③ |③---|
口口口④ |④---|
19
口口④口 |①---|
口口③口 |②---|
口口②口 |③---|
口口①口 |④---|
20
口口口口 |①---|
①①口口 |----|
②②口口 |②---|
口口口口 |----|
21
口④④口 |①---|
口③③口 |②---|
口②②口 |③---|
口①①口 |④---|
22
①口口口 |①---|
②口口口 |②---|
③口口口 |③---|
④口口口 |④---|
23
口④口口 |①---|
口③口口 |②---|
口②口口 |③---|
口①口口 |④---|
24
口口口口 |①---|
口口①① |----|
口口②② |②---|
口口口口 |----|
25
口④④口 |①---|
口③③口 |②---|
口②②口 |③---|
口①①口 |④---|
26
口口口① |①---|
口口口② |②---|
口口口③ |③---|
口口口④ |④---|
27
口口口口 |①---|
口口口口 |②---|
口口口口 |③---|
③②①口 |----|
28
①口口口 |①---|
②口口口 |②---|
③口口口 |③---|
④口口口 |④---|
29
口口口口 |①---|
口④④口 |②---|
口③③口 |③---|
口①②口 |④---|
30
口③②① |①---|
口口口口 |②---|
口口口口 |③---|
口口口口 |----|
31
口口口口 |①---|
①②③口 |②---|
口口口口 |③---|
口口口口 |----|
32
口①①口 |①---|
口②②口 |②---|
口③③口 |③---|
口④④口 |④---|
33
④口口④ |①---|
③口口③ |②---|
②口口② |③---|
①口口① |④---|
34
口口口口 |①---|
口①①③ |----|
口①①② |②---|
口口口口 |③---|
35
口口①① |①---|
②口口口 |----|
③口口口 |②---|
口口口口 |③---|
36
口口口口 |①---|
③口口口 |----|
②口口口 |②---|
①①口口 |③---|
37
①①口口 |①---|
口口口② |----|
口口口③ |②---|
口口口口 |③---|
38
口口口口 |①---|
口口口口 |②---|
④④③③ |③---|
②②①① |④---|
39
口④③口 |①---|
②①①② |②---|
口口口口 |③---|
口口口口 |④---|
40
口口口口 |①---|
口②①口 |②---|
口口③口 |③---|
口④口口 |④---|
41
口口口口 |①---|
口口口口 |②---|
口①③口 |③---|
④口②口 |④---|
42
口口口口 |①---|
口口口口 |②---|
①口口③ |③---|
口④④② |④---|
43
④③③④ |①---|
口②②口 |②---|
口①①口 |③---|
口口口口 |④---|
44
口口口口 |①---|
①①①① |②---|
②②②② |③---|
③③③③ |----|
45
口口①口 |----|
口①①口 |----|
口口口口 |①---|
口口口口 |----|
46
口口口② |①---|
口口口③ |----|
口口①① |②---|
口口口口 |③---|
47
②口口口 |①---|
③口口口 |----|
①①口口 |②---|
口口口口 |③---|
48
口口口口 |①---|
口口口② |----|
口口口③ |②---|
口口①① |③---|
49
口①①口 |①---|
口②②口 |----|
口口口口 |②---|
口口口口 |----|
50
②口口口 |①---|
③口口口 |----|
①①口口 |②---|
口口口口 |③---|
51
口口口② |①---|
口口口③ |----|
口口①① |②---|
口口口口 |③---|
52
口口口口 |①---|
②口口口 |----|
③口口口 |②---|
①①口口 |③---|
53
口口口口 |①---|
口②②口 |----|
口①①口 |②---|
口口口口 |----|
54
口口口口 |①---|
口口口口 |----|
①①①① |----|
口口口口 |----|
55
口口口口 |----|
口口口口 |----|
口口口口 |----|
口口口口 |----|
56
口口口口 |----|
口口口口 |----|
口口口口 |----|
口口口口 |----|
57
口口口口 |----|
口①①口 |----|
口②②口 |①---|
口口口口 |②---|
58
口口口口 |①---|
口口口口 |----|
口口口口 |②---|
口②①口 |----|
59
口口口口 |①---|
口口口口 |----|
口②①口 |②---|
口口口口 |----|
60
口口口口 |①---|
口②①口 |----|
口口口口 |②---|
口口口口 |----|
61
口①①口 |①---|
口②②口 |②---|
口③③口 |③---|
口④④口 |④---|
62
口口口口 |①---|
口口口③ |----|
口口口② |②---|
①口口① |③---|
63
口口①① |①---|
②口口口 |----|
③口口口 |②---|
口口口口 |③---|
64
口口口口 |①---|
③口口口 |----|
②口口口 |②---|
①①口口 |③---|
65
①①口口 |①---|
口口口② |----|
口口口③ |②---|
口口口口 |③---|
66
口口口口 |①---|
口口口口 |②---|
④④③③ |③---|
②②①① |④---|
67
口④③口 |①---|
②①①② |②---|
口口口口 |③---|
口口口口 |④---|
68
口口口口 |①---|
口②①口 |②---|
口口③口 |③---|
口④口口 |④---|
69
口口口口 |①---|
口口口口 |②---|
口①③口 |③---|
④口②口 |④---|
70
口口口口 |①---|
口口口口 |②---|
①口口③ |③---|
口④④② |④---|
71
④③③④ |①---|
口②②口 |②---|
口①①口 |③---|
口口口口 |④---|
72
口口口口 |①---|
①①①① |②---|
②②②② |③---|
③③③③ |----|
73
口口①口 |----|
口①①口 |----|
口口口口 |①---|
口口口口 |----|
74
口口口② |①---|
口口口③ |----|
口口①① |②---|
口口口口 |③---|
75
②口口口 |①---|
③口口口 |----|
①①口口 |②---|
口口口口 |③---|
76
口口口口 |①---|
口口口② |----|
口口口③ |②---|
口口①① |③---|
77
口①①口 |①---|
口②②口 |----|
口口口口 |②---|
口口口口 |----|
78
②口口口 |①---|
③口口口 |----|
①①口口 |②---|
口口口口 |③---|
79
口口口② |①---|
口口口③ |----|
口口①① |②---|
口口口口 |③---|
80
口口口口 |①---|
②口口口 |----|
③口口口 |②---|
①①口口 |③---|
81
口口口口 |①---|
口②②口 |----|
口①①口 |②---|
口口口口 |----|
82
①①①① |①---|
口口口口 |----|
口口口口 |----|
口口口口 |----|

不確定度: 0

最終更新:2016年10月04日 20:36