Daisuke
Y& Co.

ADVANCED

Level: 7
BPM: 157
Notes: 621

1
口口口口 |----|
口口口口 |----|
口口口口 |----|
口口口口 |----|
2
口口口④ |①---|
口口③口 |②---|
口②口口 |③---|
①口口口 |④---|
3
④口口口 |①---|
口③口口 |②---|
口口②口 |③---|
口口口① |④---|
4
口口口④ |①---|
口口③口 |②---|
口②口口 |③---|
①口口口 |④---|
5
④口口口 |①---|
口③口口 |②---|
口口②口 |③---|
口口口① |④---|
6
口口②② |①---|
④④口口 |②---|
口口口口 |③---|
①口口③ |④---|
7
口口口口 |①---|
口口口④ |②---|
口②③口 |③---|
①口口口 |④---|
8
①②③④ |①-②-|
⑧⑦⑥⑤ |③-④-|
口口口口 |⑤-⑥-|
口口口口 |⑦-⑧-|
9
口①①口 |①---|
口口口口 |----|
口口口口 |----|
口口口口 |----|
10
④④口⑤ |①-②-|
⑥口③口 |③-④-|
口口②⑦ |⑤-⑥-|
⑧口①口 |⑦-⑧-|
11
④④口⑤ |①-②-|
⑥口③口 |③-④-|
口口②⑦ |⑤-⑥-|
⑧口①口 |⑦-⑧-|
12
④④口⑤ |①-②-|
⑥口③口 |③-④-|
口口②⑦ |⑤-⑥-|
⑧口①口 |⑦-⑧-|
13
口口口口 |①-②-|
⑦③⑥⑦ |③-④-|
⑧②⑤⑧ |⑤-⑥-|
口①④口 |⑦-⑧-|
14
⑤口④④ |①-②-|
口③口⑥ |③-④-|
⑦②口口 |⑤-⑥-|
口①口⑧ |⑦-⑧-|
15
⑤口④④ |①-②-|
口③口⑥ |③-④-|
⑦②口口 |⑤-⑥-|
口①口⑧ |⑦-⑧-|
16
⑤口④④ |①-②-|
口③口⑥ |③-④-|
⑦②口口 |⑤-⑥-|
口①口⑧ |⑦-⑧-|
17
口口口口 |①-②-|
⑧⑥③⑧ |③-④-|
⑦⑤②⑦ |⑤-⑥-|
口④①口 |⑦-⑧-|
18
⑦⑦①口 |①-②-|
口口②口 |③-④-|
口③⑥⑤ |⑤-⑥-|
口④口口 |--⑦-|
19
口口口口 |--①-|
①口口口 |②-③-|
口②口口
口口③口

口口口口
⑥⑥口④
口口口口 |④-⑤-|
口⑤口口 |--⑥-|
20
口口口口 |①-②-|
⑥口口③ |③-④-|
⑤⑧⑧② |⑤-⑥-|
④⑦⑦① |⑦-⑧-|
21
①④④② |①---|
④口口④ |②---|
口⑤⑤口 |③-④-|
②③③① |--⑤-|
22
①口⑦⑦ |①-②-|
口②③口 |③-④-|
口口口④ |⑤-⑥-|
口口⑤⑥ |--⑦-|
23
口口口口 |--①-|
①口口口 |②-③-|
口②口口
口口③口

口口口口
⑥⑥口④
口口口口 |④-⑤-|
口⑤口口 |--⑥-|
24
口口口口 |①-②-|
⑥口口③ |③-④-|
⑤⑧⑧② |⑤-⑥-|
④⑦⑦① |⑦-⑧-|
25
①④④② |①---|
④⑤⑤④ |②---|
口⑤⑤口 |③-④-|
②③③① |--⑤-|
26
⑦⑦口口 |--①-|
口口口口 |②-③-|
④⑤⑥口 |④-⑤-|
口③②① |⑥-⑦-|
27
口⑤⑤① |--①-|
口口②口 |②-③-|
口③口口 |④---|
④口口口 |--⑤-|
28
⑦⑦口口 |--①-|
口口口口 |②-③-|
④⑤⑥口 |④-⑤-|
口③②① |⑥-⑦-|
29
⑤⑤④④ |--①-|
口③②① |②-③-|
口⑥口口 |④---|
④④⑤⑤ |⑤-⑥-|
30
口口口口 |--①-|
口③②① |②-③-|
④口⑤口 |④---|
口口口口 |--⑤-|
31
⑤口口口 |--①-|
口口口口 |②-③-|
口口⑤④ |④---|
①②③口 |--⑤-|
32
口口①口 |--①-|
口②口③ |--②-|
①口④口 |--③-|
口③口② |--④-|
33
口①口① |①-②-|
②口②口 |--③-|
③③口口 |--④-|
口口④④ |----|
34
①①①① |①---|
口口口⑤ |----|
口③④口 |②-③-|
②口口口 |④-⑤-|
35
①①③口 |①---|
口口④口 |②---|
口口⑤口 |③-④-|
⑥②②口 |⑤-⑥-|
36
口口口口 |--①-|
⑤口口口 |----|
口④③口 |②-③-|
口①口② |④-⑤-|
37
⑥③①① |①---|
口④口口 |②---|
口⑤口口 |③-④-|
口②②⑥ |⑤-⑥-|
38
口②③① |--①-|
口口口口 |--②-|
口口口口 |--③-|
①③②口 |----|
39
口⑥⑥口 |①---|
②①①② |②---|
②①①② |③-④-|
口⑤④③ |⑤-⑥-|
40
口口口⑤ |--①-|
口①①④ |--②-|
口②②③ |--③-|
口口口口 |④-⑤-|
41
③口口口 |--①-|
②口⑥口 |②-③-|
①口⑤口 |--④-|
口口④口 |⑤-⑥-|
42
⑥口口⑥ |--①-|
⑤③口⑤ |②-③-|
④②口④ |--④-|
口①口口 |⑤-⑥-|
43
口①①口 |--①-|
口②②口 |--②-|
口口口口
口口口口

④④④④
口口口口
口③③口 |--③-|
口口口口 |--④-|
44
口口口口 |--①-|
①①①① |--②-|
②②②② |----|
口口口口 |----|
45
口口①口 |----|
口①①口 |----|
口①①口 |①---|
口口口口 |----|
46
④④口⑤ |①-②-|
⑥口口③ |③-④-|
口口⑦② |⑤-⑥-|
⑧口口① |⑦-⑧-|
47
④④口⑤ |①-②-|
⑥口口③ |③-④-|
口口⑦② |⑤-⑥-|
⑧口口① |⑦-⑧-|
48
④④口⑤ |①-②-|
⑥口口③ |③-④-|
口口⑦② |⑤-⑥-|
⑧口口① |⑦-⑧-|
49
口口口口 |①-②-|
⑦③⑥⑦ |③-④-|
⑧②⑤⑧ |⑤-⑥-|
口①④口 |⑦-⑧-|
50
⑤口④④ |①-②-|
口③口⑥ |③-④-|
⑦②口口 |⑤-⑥-|
口①口⑧ |⑦-⑧-|
51
⑤口④④ |①-②-|
口③口⑥ |③-④-|
⑦②口口 |⑤-⑥-|
口①口⑧ |⑦-⑧-|
52
⑤口④④ |①-②-|
口③口⑥ |③-④-|
⑦②口口 |⑤-⑥-|
口①口⑧ |⑦-⑧-|
53
口口口口 |①-②-|
⑧⑥③⑧ |③-④-|
⑦⑤②⑦ |⑤-⑥-|
口④①口 |⑦-⑧-|
54
口①①口 |①---|
口口口口 |----|
口口口口 |----|
口口口口 |----|
55
①①口② |----|
③口口口 |--①-|
口口口④ |--②-|
口口口口 |③-④-|
56
口口口口 |①---|
口口口口 |----|
口口口口 |----|
①口口口 |----|
57
①口口② |----|
口口口口 |----|
口③口口 |①---|
②口口① |②-③-|
58
④口口口 |--①-|
④③②① |②-③-|
口口口口 |④-⑤-|
⑤⑥⑦口 |⑥-⑦-|
59
口口口口 |①---|
口②口口 |--②-|
口②口① |----|
口口口① |----|
60
口口口③ |①---|
口口口口 |②-③-|
口口口口 |----|
①④②口 |--④-|
61
口口口口 |①-②-|
⑧⑦⑥⑤ |③-④-|
①②③④ |⑤-⑥-|
口口口口 |⑦-⑧-|
62
口①①口 |①---|
口口口⑤ |----|
口③④口 |②-③-|
②口口口 |④-⑤-|
63
①①③口 |①---|
口口④口 |②---|
口口⑤口 |③-④-|
⑥②②口 |⑤-⑥-|
64
口口口口 |--①-|
⑤口口口 |----|
口④③口 |②-③-|
口①口② |④-⑤-|
65
⑥③①① |①---|
口④口口 |②---|
口⑤口口 |③-④-|
口②②⑥ |⑤-⑥-|
66
口②③① |--①-|
口口口口 |--②-|
口口口口 |--③-|
①③②口 |----|
67
口⑥⑥口 |①---|
②①①② |②---|
②①①② |③-④-|
口⑤④③ |⑤-⑥-|
68
口口口⑤ |--①-|
口①①④ |--②-|
口②②③ |--③-|
口口口口 |④-⑤-|
69
③口口口 |--①-|
②口⑥口 |②-③-|
①口⑤口 |--④-|
口口④口 |⑤-⑥-|
70
⑥口口⑥ |--①-|
⑤③口⑤ |②-③-|
④②口④ |--④-|
口①口口 |⑤-⑥-|
71
口①①口 |--①-|
口②②口 |--②-|
口口口口
口口口口

④④④④
口口口口
口③③口 |--③-|
口口口口 |--④-|
72
口口口口 |--①-|
①①①① |--②-|
②②②② |----|
口口口口 |----|
73
口口①口 |----|
口①①口 |----|
口①①口 |①---|
口口口口 |----|
74
④④口⑤ |①-②-|
⑥口口③ |③-④-|
口口⑦② |⑤-⑥-|
⑧口口① |⑦-⑧-|
75
④④口⑤ |①-②-|
⑥口口③ |③-④-|
口口⑦② |⑤-⑥-|
⑧口口① |⑦-⑧-|
76
④④口⑤ |①-②-|
⑥口口③ |③-④-|
口口⑦② |⑤-⑥-|
⑧口口① |⑦-⑧-|
77
口口口口 |①-②-|
⑦③⑥⑦ |③-④-|
⑧②⑤⑧ |⑤-⑥-|
口①④口 |⑦-⑧-|
78
⑤口④④ |①-②-|
口③口⑥ |③-④-|
⑦②口口 |⑤-⑥-|
口①口⑧ |⑦-⑧-|
79
⑤口④④ |①-②-|
口③口⑥ |③-④-|
⑦②口口 |⑤-⑥-|
口①口⑧ |⑦-⑧-|
80
⑤口④④ |①-②-|
口③口⑥ |③-④-|
⑦②口口 |⑤-⑥-|
口①口⑧ |⑦-⑧-|
81
口口口口 |①-②-|
口⑥③口 |③-④-|
⑧⑤②⑧ |⑤-⑥-|
⑦④①⑦ |⑦-⑧-|
82
①①①① |①---|
口口口口 |----|
口口口口 |----|
口口口口 |----|

不確定度: 0

最終更新:2016年10月04日 20:35