Daisuke
Y& Co.

EXTREME

Level: 9
BPM: 157
Notes: 871

1
口口口口 |----|
口口口口 |----|
口口口口 |----|
口口口口 |----|
2
口口口口 |①-②-|
口口口口 |③-④-|
⑧⑦⑥⑤ |⑤-⑥-|
①②③④ |⑦-⑧-|
3
⑧⑦⑥⑤ |①-②-|
①②③④ |③-④-|
口口口口 |⑤-⑥-|
口口口口 |⑦-⑧-|
4
口口口口 |①-②-|
口口口口 |③-④-|
⑤⑥⑦⑧ |⑤-⑥-|
④③②① |⑦-⑧-|
5
口①①口 |①---|
②口口⑤ |--②③|
③口⑥口 |④-⑤-|
④⑦口口 |⑥-⑦-|
6
口③③口 |①-②-|
②口口口 |③-④-|
③口口③
④口①①

⑥口口⑤
口口口⑦
口⑧⑤口 |⑤-⑥-|
口口⑦口 |⑦-⑧-|
7
口口口③ |①-②-|
④口①口 |③-④-|
口口③口
②口口①

口口⑤口
口口口⑦
⑥口口⑤ |⑤-⑥-|
⑧口⑦口 |⑦-⑧-|
8
⑧④口① |①②③④|
②口口口 |⑤⑥⑦⑧|
口口⑤⑦
口⑥口③

口口⑨⑮
口⑫口⑪
⑯⑩口口 |⑨⑩⑪⑫|
⑭口⑬口 |⑬⑭⑮⑯|
9
口口口口 |①---|
口口①口 |----|
口口口口 |----|
口①口① |----|
10
④口口⑤ |①②③④|
⑫③⑧⑦ |⑤-⑥-|
⑩⑨②口 |⑦⑧⑨⑩|
⑥口⑪① |⑪-⑫-|
11
④口⑦⑤ |①②③④|
⑨③⑧口 |⑤-⑥-|
⑩口②口 |⑦⑧-⑨|
⑥口⑪① |⑩-⑪-|
12
④口口⑤ |①②③④|
⑫③⑧⑦ |⑤-⑥-|
⑩⑨②口 |⑦⑧⑨⑩|
⑥口⑪① |⑪-⑫-|
13
④⑩⑤⑨ |①②③④|
口③⑧口 |⑤-⑥⑦|
⑭⑦②⑪ |⑧⑨⑩-|
⑥⑬⑫① |⑪⑫⑬⑭|
14
④口口⑤ |①②③④|
⑫③⑧⑦ |⑤-⑥-|
⑩⑨②口 |⑦⑧⑨⑩|
⑥口⑪① |⑪-⑫-|
15
④口⑦⑤ |①②③④|
⑨③⑧口 |⑤-⑥-|
⑩口②口 |⑦⑧-⑨|
⑥口⑪① |⑩-⑪-|
16
④口口⑤ |①②③④|
⑫③⑧⑦ |⑤-⑥-|
⑩⑨②口 |⑦⑧⑨⑩|
⑥口⑪① |⑪-⑫-|
17
④口⑤口 |①②③④|
口③口口 |⑤-⑥⑦|
口⑦②口
⑥口口①

⑭⑩口⑨
口⑬⑧口
口口⑫口 |⑧⑨⑩-|
口口口⑪ |⑪⑫⑬⑭|
18
口口③口 |①-②-|
口口口① |③-④-|
④口口③
②口①口

口口口⑤
⑥口⑦口
口口⑤口 |⑤-⑥-|
口⑧⑧⑦ |⑦-⑧-|
19
口口①口 |--①-|
口②④④ |②-③-|
③口⑤⑤ |④-⑤-|
⑥⑥口口 |--⑥-|
20
②口⑥① |①-②-|
④⑤③口 |③-④⑤|
⑨口口口 |-⑥-⑦|
口⑧⑦口 |⑧-⑨-|
21
②口口① |①---|
口②①口 |②---|
口①②口
①口口②

口④③口
③口口④
④⑤口③ |③-④-|
口③④口 |--⑤-|
22
口口③① |①-②-|
口口口口 |③-④-|
④口①③
②口口口

口口口口
⑥口⑦⑤
口⑧⑧口 |⑤-⑥-|
口口⑤⑦ |⑦-⑧-|
23
口口①口 |--①-|
口②④④ |②-③-|
③口⑤⑤ |④-⑤-|
⑥⑥口口 |--⑥-|
24
②⑨⑥① |①-②-|
口口③口 |③-④⑤|
④⑤⑧⑦ |-⑥-⑦|
口口口口 |⑧-⑨-|
25
口口口口 |①---|
②①②① |②---|
口口口口
①②①②

④⑤口④
口口口⑤
⑤③③口 |③-④-|
口口⑤口 |--⑤-|
26
口⑦⑦口 |--①-|
①②③口 |②-③-|
口⑥⑤④ |④-⑤-|
口口口口 |⑥-⑦-|
27
⑤口口① |--①-|
③⑥②口 |②-③-|
⑦口⑦③ |④-⑤-|
口口④口 |⑥-⑦-|
28
⑧④③② |①-②-|
⑤⑥⑦口 |③-④-|
口口口口 |⑤-⑥-|
口口口① |⑦-⑧-|
29
口口口口 |--①-|
口③口口 |②-③-|
口口②口
口口口①

口④⑤口
④口⑥⑤
⑤口口④ |④---|
口⑤④⑥ |⑤-⑥-|
30
口口口口 |①-②-|
口口口口 |③-④-|
口②口④
①口③口

口口口⑤
口⑧口口
口口⑤口 |⑤-⑥-|
⑧⑥口⑦ |⑦-⑧-|
31
口③②口 |①-②-|
④口口① |③-④-|
口口口口
口口口口

⑤口⑧口
口口口⑧
⑧⑤口口 |⑤-⑥-|
⑦⑧口⑥ |⑦-⑧-|
32
②①口口 |--①-|
①②口口 |--②-|
口口②①
口口①②

口口口③
口口③口
口③口口 |--③-|
③④④口 |--④-|
33
②①①③ |①-②-|
口④④口 |--③-|
口④④口 |--④-|
③口口② |----|
34
口①口口 |①---|
口口口① |----|
①口口口
口口①口

口⑤口口
④口口口
口口③口 |②-③-|
口口口② |④-⑤-|
35
口口②① |①---|
口口①② |②---|
②①口口
①②口口

③⑤口口
口口⑥口
口口口口 |③-④-|
口口⑥④ |⑤-⑥-|
36
口口④⑤ |①-②-|
②口⑥口 |③-④-|
⑧①口③ |⑤-⑥-|
②⑦口口 |⑦-⑧-|
37
①②口口 |①---|
②①口口 |②---|
口口①②
口口②①

⑥口口④
口口口口
口口⑥口 |③-④-|
③⑤口口 |⑤-⑥-|
38
口①②口 |①-②-|
①口③口 |③-④-|
②③口口
口口口④

口⑧口口
⑧⑤口⑥
口口口⑦ |⑤-⑥-|
口⑥⑦口 |⑦-⑧-|
39
②⑤口① |①---|
口②①③ |②---|
⑥①②口 |③-④-|
①口④② |⑤-⑥-|
40
口口①① |--①-|
②②口口 |--②-|
口口①①
②②口口

口口口⑤
口口④口
口③口口 |--③-|
口口口口 |④-⑤-|
41
口口⑥口 |--①-|
口⑤口③ |②-③-|
④口②口 |--④-|
口①口口 |⑤-⑥-|
42
口口口口 |--①-|
③口口⑥ |②-③-|
口②⑤口 |--④-|
口④①口 |⑤-⑥-|
43
口①①⑧ |①-②-|
②③③⑥ |③-④-|
口⑤⑤④ |⑤-⑥-|
⑧⑦⑦口 |⑦-⑧-|
44
②①①口 |①-②-|
口④④口 |③-④-|
③④④③ |----|
口口口② |----|
45
①①口口 |----|
①口①口 |----|
①①口口 |①---|
口口口口 |----|
46
④口口⑤ |①②③④|
⑫③⑧⑦ |⑤-⑥-|
⑩⑨②口 |⑦⑧⑨⑩|
⑥口⑪① |⑪-⑫-|
47
④口⑦⑤ |①②③④|
⑨③⑧口 |⑤-⑥-|
⑩口②口 |⑦⑧-⑨|
⑥口⑪① |⑩-⑪-|
48
④口口⑤ |①②③④|
⑫③⑧⑦ |⑤-⑥-|
⑩⑨②口 |⑦⑧⑨⑩|
⑥口⑪① |⑪-⑫-|
49
④⑩⑤⑨ |①②③④|
口③⑧口 |⑤-⑥⑦|
⑭⑦②⑪ |⑧⑨⑩-|
⑥⑬⑫① |⑪⑫⑬⑭|
50
④口口⑤ |①②③④|
⑫③⑧⑦ |⑤-⑥-|
⑩⑨②口 |⑦⑧⑨⑩|
⑥口⑪① |⑪-⑫-|
51
④口⑦⑤ |①②③④|
⑨③⑧口 |⑤-⑥-|
⑩口②口 |⑦⑧-⑨|
⑥口⑪① |⑩-⑪-|
52
④口口⑤ |①②③④|
⑫③⑧⑦ |⑤-⑥-|
⑩⑨②口 |⑦⑧⑨⑩|
⑥口⑪① |⑪-⑫-|
53
④口⑤口 |①②③④|
口③口口 |⑤-⑥⑦|
口⑦②口
⑥口口①

⑭⑩口⑨
口⑬⑧口
口口⑫口 |⑧⑨⑩-|
口口口⑪ |⑪⑫⑬⑭|
54
口⑥①⑤ |①-②-|
⑧口⑦② |③-④-|
③口口口 |⑤-⑥-|
口④口口 |⑦-⑧-|
55
口口①口 |--①-|
口②⑦⑤ |②-③-|
③④⑥口 |④-⑤-|
口⑦③口 |⑥-⑦-|
56
口口②口 |①-②-|
口③口口 |③-④-|
④口口口
口口口①

口⑧⑧⑤
口口⑥口
口⑦口口 |⑤-⑥-|
口口口口 |⑦-⑧-|
57
⑤口口⑥ |①-②-|
①⑦口② |③-④-|
口口③口 |⑤---|
⑥④口⑤ |⑥-⑦-|
58
口①⑥口 |①-②-|
口⑦⑧② |③-④-|
⑧口③④ |⑤-⑥-|
口④①⑤ |⑦-⑧-|
59
口口口口 |①-②-|
口口口② |③-④-|
口口③④
口④①口

口口口口
口⑥口口
口⑧口口 |⑤-⑥-|
口口⑦⑤ |⑦-⑧-|
60
口②口③ |①---|
口口口口 |②-③-|
口口口口 |----|
①④口口 |--④-|
61
口⑥①⑦ |①②③④|
④口口口 |⑤⑥⑦⑧|
②口③口
⑧口口⑤

⑭口⑮口
口⑩口⑪
⑯⑫口⑨ |⑨⑩⑪⑫|
口口⑬口 |⑬⑭⑮⑯|
62
口口⑤口 |①---|
口口①④ |----|
口③口口 |②-③-|
②①口① |④-⑤-|
63
①②口口 |①---|
②①口口 |②---|
口口①②
口口②①

口口口④
口⑥口口
口⑤口口 |③-④-|
③⑥口口 |⑤-⑥-|
64
⑤④口口 |①-②-|
口⑥口② |③-④-|
③口①⑧ |⑤-⑥-|
口口⑦② |⑦-⑧-|
65
口口②① |①---|
口口①② |②---|
②①口口
①②口口

③⑤口口
口口⑥口
口口口口 |③-④-|
⑥口口④ |⑤-⑥-|
66
口口④口 |①-②-|
口③口④ |③-④-|
①②③口
口①口口

口⑥口⑤
⑦口口口
⑧口口⑥ |⑤-⑥-|
口⑧⑦口 |⑦-⑧-|
67
①⑤口② |①---|
口①②③ |②---|
⑥②①口 |③-④-|
②口④① |⑤-⑥-|
68
口口①① |--①-|
②②口口 |--②-|
口口①①
②②口口

口口口⑤
口口④口
口③口口 |--③-|
口口口口 |④-⑤-|
69
口口⑥口 |--①-|
口⑤口③ |②-③-|
④口②口 |--④-|
口①口口 |⑤-⑥-|
70
口口口口 |--①-|
③口口⑥ |②-③-|
口②⑤口 |--④-|
口④①口 |⑤-⑥-|
71
口①①⑧ |①-②-|
②③③⑥ |③-④-|
口⑤⑤④ |⑤-⑥-|
⑧⑦⑦口 |⑦-⑧-|
72
②①①口 |①-②-|
口④④口 |③-④-|
③④④③ |----|
口口口② |----|
73
①①口口 |----|
①口①口 |----|
①①口口 |①---|
口口口口 |----|
74
④口口⑤ |①②③④|
⑫③⑧⑦ |⑤-⑥-|
⑩⑨②口 |⑦⑧⑨⑩|
⑥口⑪① |⑪-⑫-|
75
④口⑦⑤ |①②③④|
⑨③⑧口 |⑤-⑥-|
⑩口②口 |⑦⑧-⑨|
⑥口⑪① |⑩-⑪-|
76
④口口⑤ |①②③④|
⑫③⑧⑦ |⑤-⑥-|
⑩⑨②口 |⑦⑧⑨⑩|
⑥口⑪① |⑪-⑫-|
77
④⑩⑤⑨ |①②③④|
口③⑧口 |⑤-⑥⑦|
⑭⑦②⑪ |⑧⑨⑩-|
⑥⑬⑫① |⑪⑫⑬⑭|
78
④口口⑤ |①②③④|
⑫③⑧⑦ |⑤-⑥-|
⑩⑨②口 |⑦⑧⑨⑩|
⑥口⑪① |⑪-⑫-|
79
④口⑦⑤ |①②③④|
⑨③⑧口 |⑤-⑥-|
⑩口②口 |⑦⑧-⑨|
⑥口⑪① |⑩-⑪-|
80
④口口⑤ |①②③④|
⑫③⑧⑦ |⑤-⑥-|
⑩⑨②口 |⑦⑧⑨⑩|
⑥口⑪① |⑪-⑫-|
81
④口口口 |①②③④|
口③口口 |⑤-⑥⑦|
口⑦②⑤
⑥口口①

口⑫口⑨
⑪口⑧口
⑩口口⑭ |⑧⑨⑩-|
口口⑬口 |⑪⑫⑬⑭|
82
口口口口 |①---|
口①口① |----|
口口①口 |----|
口①口① |----|

不確定度: 0

最終更新:2016年10月04日 20:35