Vampire Killer
浅田 靖

BASIC

Level: 3
BPM: 128
Notes: 202

1
口口口口 |----|
口口口口 |----|
口口口口 |----|
口口口口 |----|
2
口口口口 |①--②|
口①口口 |--③-|
口口②口 |----|
口口③口 |----|
3
口口口口 |①---|
口口口口 |----|
口①①口 |②---|
口②②口 |----|
4
口口口口 |①--②|
口口①口 |--③-|
口②口口 |----|
口③口口 |----|
5
口口口口 |①---|
口口口口 |----|
口①①口 |②---|
口②②口 |----|
6
口口口口 |①--②|
④①口口 |--③-|
⑤口②口 |--④-|
⑥③口口 |⑤-⑥-|
7
口口口口 |①---|
口口口口 |----|
口①①口 |②---|
口②②口 |----|
8
口口口口 |①--②|
口口①④ |--③-|
口②口⑤ |--④-|
口口③⑥ |⑤-⑥-|
9
口口口口 |①---|
口口口口 |----|
口①①口 |②---|
口②②口 |----|
10
口口口口 |①--②|
④①口口 |--③-|
⑤口②口 |--④-|
⑥③口口 |⑤-⑥-|
11
口口口口 |①---|
口口口口 |----|
口①①口 |②---|
口②②口 |----|
12
口口口口 |①--②|
口口①④ |--③-|
口②口⑤ |--④-|
口口③⑥ |⑤-⑥-|
13
口口口口 |①---|
口口口口 |----|
口①①口 |②---|
口②②口 |----|
14
口口口口 |--①-|
口①口口 |----|
口口口口 |②---|
口口②口 |----|
15
口口口④ |①---|
③口口口 |②---|
口口口② |③---|
①口口口 |④---|
16
口口口口 |--①-|
口口①口 |----|
口口口口 |②---|
口②口口 |----|
17
④口口口 |①---|
口口口③ |②---|
②口口口 |③---|
口口口① |④---|
18
口口口口 |①---|
口②口口 |----|
口①口口 |②---|
口口口口 |----|
19
口口口口 |①---|
口口①口 |----|
口口②口 |②---|
口口口口 |----|
20
口口口口 |①---|
口②口口 |----|
口①口口 |②---|
口口口口 |----|
21
口口口② |①---|
口口①口 |----|
口口口口 |②---|
口口口口 |----|
22
口口口口 |①---|
口①①口 |----|
口①①口 |----|
口口口口 |----|
23
口口口口 |①---|
口口口口 |②---|
②口口④ |③---|
口①③口 |④---|
24
口口口口 |①---|
口①①口 |----|
口①①口 |----|
口口口口 |----|
25
口口口口 |①---|
口口口口 |②---|
④口口② |③---|
口③①口 |④---|
26
口口口口 |--①-|
口口①口 |----|
口口口口 |②---|
口②口口 |----|
27
④口口口 |①---|
口口口③ |②---|
②口口口 |③---|
口口口① |④---|
28
口口口口 |--①-|
口①口口 |----|
口口口口 |②---|
口口②口 |----|
29
口口口④ |①---|
③口口口 |②---|
口口口② |③---|
①口口口 |④---|
30
口口口口 |①---|
口口②口 |----|
口口①口 |②---|
口口口口 |----|
31
口口口口 |①---|
口①口口 |----|
口②口口 |②---|
口口口口 |----|
32
口口口口 |①---|
口口②口 |----|
口口①口 |②---|
口口口口 |----|
33
②口口口 |①---|
口①口口 |----|
口口口口 |②---|
口口口口 |----|
34
口口口口 |①---|
口①①口 |----|
口①①口 |----|
口口口口 |----|
35
口口口口 |①---|
口口口口 |②---|
④口口② |③---|
口③①口 |④---|
36
口口口口 |①---|
口①①口 |----|
口①①口 |----|
口口口口 |----|
37
口口口口 |①---|
口口口口 |②---|
②口口④ |③---|
口①③口 |④---|
38
④口口口 |①---|
③②①口 |②---|
口口口口 |③---|
口口口口 |④---|
39
口①②③ |①---|
口口口④ |②---|
口口口口 |③---|
口口口口 |④---|
40
口口口口 |①--②|
口口①口 |--③-|
口②口口
口口③口

口口口口
口口口口
口④口口 |----|
口口口口 |④---|
41
口口④③ |①---|
口口①② |②---|
口口口口 |③---|
口口口口 |④---|
42
②①口口 |①---|
③④口口 |②---|
口口口口 |③---|
口口口口 |④---|
43
口口口口 |①---|
口口①口 |----|
口②口口 |②---|
口口口口 |----|
44
口口口口 |①--②|
口①口口 |--③-|
口口②口
口③口口

口口口口
口口口口
口口④口 |----|
口口口口 |④---|
45
口口口口 |①---|
③口口口 |②---|
②①口口 |③---|
口口口口 |----|
46
③口②口 |①---|
口口口口 |--②-|
口口①口 |----|
口口口口 |③---|
47
口口口口 |--①-|
口口口口 |----|
①口②口 |②---|
口口口口 |----|
48
口口口口 |①---|
口②口① |--②-|
口口口口 |----|
口③口口 |③---|
49
口口口口 |①---|
口口口口 |②---|
口④口③ |③---|
口口①② |④---|
50
口口口口 |①---|
口①③口 |②---|
口口②④ |③---|
口口口口 |④---|
51
口②②口 |①---|
③口口① |②---|
口④口口 |③---|
口口口口 |④---|
52
口口口口 |①---|
口口③口 |②---|
口口口② |③---|
口口①口 |----|
53
口口口口 |①---|
口口口口 |②---|
①②③④ |③---|
口口口口 |④---|
54
口口口口 |①---|
口口①口 |----|
口②口口 |②---|
口口口口 |----|
55
口②口口 |①---|
①口口口 |----|
口口口口 |②---|
口口口口 |----|
56
口口口口 |①---|
④③②① |②---|
口口口口 |③---|
口口口口 |④---|
57
口④④口 |①---|
口口口口 |②---|
①②③口 |③---|
口口口口 |--④-|
58
口口口口 |----|
口口口口 |----|
口口口口 |----|
口口口口 |----|
59
口口口口 |①---|
口④③④ |②---|
口②④口 |③---|
口口①口 |④---|

不確定度: 0

最終更新:2016年09月25日 01:47