Vampire Killer
浅田 靖

ADVANCED

Level: 7
BPM: 128
Notes: 508

1
口口口口 |----|
口口口口 |----|
口口口口 |----|
口口口口 |----|
2
①口口口 |①②-③|
②口③口 |--④-|
口③口④
口口④口

口口口⑧
口口⑦口
口⑥口口 |----|
⑤口口口 |⑤⑥⑦⑧|
3
口①口口 |①--②|
口口口② |--③-|
口③口口 |④⑤--|
口口⑤④ |----|
4
口口口① |①②-③|
口③口② |--④-|
④口③口
口④口口

⑧口口口
口⑦口口
口口⑥口 |----|
口口口⑤ |⑤⑥⑦⑧|
5
口口①口 |①--②|
②口口口 |--③-|
口口③口 |④⑤--|
④⑤口口 |----|
6
①①口口 |①②-③|
②②③口 |--④-|
口③口④
口口④口

口口口⑨
口⑤⑧口
口⑦⑤口 |--⑤-|
⑥口口口 |⑥⑦⑧⑨|
7
①口口口 |①--②|
口口口② |--③-|
③口⑤⑤ |④⑤--|
口口④④ |----|
8
口口①① |①②-③|
口③②② |--④-|
④口③口
口④口口

⑨口口口
口⑧⑤口
口⑤⑦口 |--⑤-|
口口口⑥ |⑥⑦⑧⑨|
9
口口口① |①--②|
②口口口 |--③-|
④④口③ |④⑤--|
⑤⑤口口 |----|
10
①①口口 |①②-③|
②②③口 |--④-|
口③口④
口口④口

口口口⑨
口⑤⑧口
口⑦⑤口 |--⑤-|
⑥口口口 |⑥⑦⑧⑨|
11
①口口口 |①--②|
口口口② |--③-|
③口⑤⑤ |④⑤--|
口口④④ |----|
12
口口①① |①②-③|
口③②② |--④-|
④口③口
口④口口

⑨口口口
口⑧⑤口
口⑤⑦口 |--⑤-|
口口口⑥ |⑥⑦⑧⑨|
13
口口口① |①--②|
②口口口 |--③-|
④④口③ |④⑤--|
⑤⑤口口 |----|
14
③口口口 |--①-|
口①②④ |-②--|
⑤②①口 |③④⑤⑥|
口口口⑥ |----|
15
⑥口口① |①-②③|
⑦④②口 |-④⑤-|
⑧⑤③⑩ |⑥⑦⑧⑨|
⑨口口⑪ |-⑩⑪-|
16
口口口③ |--①-|
④②①口 |-②--|
口①②⑤ |③④⑤⑥|
⑥口口口 |----|
17
①口口⑥ |①-②③|
口②④⑦ |-④⑤-|
⑩③⑤⑧ |⑥⑦⑧⑨|
⑪口口⑨ |-⑩⑪-|
18
③⑤⑤④ |①--②|
口①②口 |--③-|
口②①口 |④--⑤|
④⑥⑥③ |--⑥-|
19
④⑤⑤③ |①--②|
口②①口 |--③-|
口①②口 |④--⑤|
③口口④ |----|
20
③⑤⑤④ |①--②|
口①②口 |--③-|
口②①口 |④--⑤|
④⑥⑥③ |--⑥-|
21
⑥口口⑥ |①--②|
⑤②①⑤ |--③-|
③①②③ |④--⑤|
④口口④ |--⑥-|
22
口口口口 |①②③④|
口口①口 |----|
口③②口 |----|
口④口口 |----|
23
口①⑤口 |①-②-|
⑥口口② |③④--|
③口口⑦ |⑤-⑥-|
④口口⑧ |⑦⑧--|
24
口口口口 |①②③④|
口①口口 |----|
口②③口 |----|
口口④口 |----|
25
口⑤①口 |①-②-|
②口口⑥ |③④--|
⑦口口③ |⑤-⑥-|
⑧口口④ |⑦⑧--|
26
③口口口 |--①-|
口①②④ |-②--|
⑤②①口 |③④⑤⑥|
口口口⑥ |----|
27
⑥口口① |①-②③|
⑦④②口 |-④⑤-|
⑧⑤③⑩ |⑥⑦⑧⑨|
⑨口口⑪ |-⑩⑪-|
28
口口口③ |--①-|
④②①口 |-②--|
口①②⑤ |③④⑤⑥|
⑥口口口 |----|
29
①口口⑥ |①-②③|
口②④⑦ |-④⑤-|
⑩③⑤⑧ |⑥⑦⑧⑨|
⑪口口⑨ |-⑩⑪-|
30
③⑤⑤④ |①--②|
口①②口 |--③-|
口②①口 |④--⑤|
④⑥⑥③ |--⑥-|
31
④⑤⑤③ |①--②|
口②①口 |--③-|
口①②口 |④--⑤|
③口口④ |----|
32
③⑤⑤④ |①--②|
口①②口 |--③-|
口②①口 |④--⑤|
④⑥⑥③ |--⑥-|
33
⑥口口⑥ |①--②|
⑤②①⑤ |--③-|
③①②③ |④--⑤|
④口口④ |--⑥-|
34
口口口口 |①②③④|
口口①口 |----|
口③②口 |----|
口④口口 |----|
35
口①⑤口 |①-②-|
⑥口口② |③④--|
③口口⑦ |⑤-⑥-|
④口口⑧ |⑦⑧--|
36
口口口口 |①②③④|
口①口口 |----|
口②③口 |----|
口口④口 |----|
37
口⑤①口 |①-②-|
②口口⑥ |③④--|
⑦口口③ |⑤-⑥-|
⑧口口④ |⑦⑧--|
38
口口口口 |①-②-|
⑥③①⑤ |③-④-|
口②④⑦ |⑤-⑥-|
⑧口口口 |⑦-⑧-|
39
口口⑦⑤ |①-②-|
口口①③ |③-④-|
④②口口 |⑤-⑥-|
⑥⑧口口 |⑦-⑧-|
40
口③口口 |①②-③|
③口①口 |--④-|
口口②④
口口④口

口口口⑤
口口口口
口口⑥口 |----|
口口口口 |⑤-⑥-|
41
②⑦③⑥ |①-②-|
口①口口 |③-④-|
④口⑤⑧ |⑤-⑥-|
口口口口 |⑦-⑧-|
42
⑦口口口 |①-②-|
⑤口②④ |③-④-|
③①口⑥ |⑤-⑥-|
口口口⑧ |⑦-⑧-|
43
口①口② |①---|
口口口口 |②-③-|
口口③口
口口口口

口④口口
④口口口
口口口口 |--④-|
口口口口 |----|
44
口口③⑤ |①②-③|
口①口③ |--④-|
④②口口 |----|
⑥④口口 |⑤-⑥-|
45
口口④口 |①-②-|
②⑤口口 |③-④-|
口口⑤① |⑤---|
口③口口 |----|
46
口口①口 |①---|
口③口⑥ |--②-|
口口④口 |--③④|
口②口⑤ |⑤-⑥-|
47
①口口口 |--①-|
口口③口 |--②-|
②⑥口④ |③-④-|
口口⑤口 |⑤-⑥-|
48
口口口① |①---|
口③口口 |--②-|
④口口② |--③-|
口⑤口口 |④-⑤-|
49
⑤口③口 |①-②-|
⑦④口② |③-④-|
口⑥①口 |⑤---|
口口口口 |⑥-⑦-|
50
口①④口 |①---|
⑥口口③ |②-③-|
口⑤②口 |④---|
口口口口 |⑤-⑥-|
51
②①口② |①---|
⑥口③口 |②---|
口④⑦口 |③④⑤-|
⑤口口口 |⑥-⑦-|
52
口③口口 |--①-|
③⑤口② |②-③-|
①口口口 |----|
④口口口 |④-⑤-|
53
口口口① |①-②-|
口口②口 |③-④-|
口口口③
口口④口

口⑦口口
⑥口⑧口
口⑤口口 |⑤-⑥-|
口口口口 |⑦-⑧-|
54
口②口① |①---|
口口③口 |--②-|
口④口⑥ |③-④-|
口口⑤口 |⑤-⑥-|
55
②口③① |①---|
口④口口 |②---|
口口⑤口 |③-④-|
口口口口 |⑤---|
56
④口口① |①-②-|
③口口② |③-④-|
②口口③
①口口④

口⑤⑥⑦
口口口⑧
⑧口口口 |⑤-⑥-|
⑦⑥⑤口 |⑦-⑧-|
57
②③④口 |①-②-|
①口口口 |③-④-|
口口口①
口④③②

口口口⑤
⑦⑥⑥⑦
⑦⑥⑥⑦ |⑤--⑥|
⑤口口口 |--⑦-|
58
口①②口 |①-②-|
口③④口 |③-④-|
口⑤⑥口 |⑤-⑥-|
口⑦⑧口 |⑦-⑧-|
59
①口口① |①-②-|
②口口② |③-④-|
③口口③
④口口④

口⑥口口
⑥口⑥口
口⑥口口 |⑤---|
口⑤⑤口 |⑥---|

不確定度: 0

最終更新:2016年09月25日 01:46