Vampire Killer
浅田 靖

EXTREME

Level: 9
BPM: 128
Notes: 705

1
口口口口 |----|
口口口口 |----|
口口口口 |----|
口口口口 |----|
2
④④口口 |①②-③|
④口口口 |--④-|
①口①③
口②③②

口口口口
口口⑥⑤
口⑧⑦口 |----|
口口口口 |⑤⑥⑦⑧|
3
②口⑤口 |①--②|
口④口口 |--③-|
口口④口 |④⑤--|
①⑤口③ |----|
4
口口④④ |①②-③|
口口口④ |--④-|
③①口①
②③②口

口口口口
⑤⑥口口
口⑦⑧口 |----|
口口口口 |⑤⑥⑦⑧|
5
口⑤口② |①--②|
口口④口 |--③-|
口④口口 |④⑤--|
③口⑤① |----|
6
③口口③ |①②-③|
口口口口 |--④-|
①④④①
②口口②

口口口口
口口⑤口
口口口口 |--⑤-|
⑨⑧⑦⑥ |⑥⑦⑧⑨|
7
⑤口②口 |①--②|
口④口② |--③-|
口①口③ |④⑤--|
口口③口 |----|
8
③口口③ |①②-③|
口口口口 |--④-|
①④④①
②口口②

口口口口
口⑤口口
口口口口 |--⑤-|
⑥⑦⑧⑨ |⑥⑦⑧⑨|
9
口②口④ |①--②|
②口⑤口 |--③-|
③口①口 |④⑤--|
口③口口 |----|
10
口③③口 |①②-③|
口口口口 |--④-|
①④④①
口②②口

口口⑨⑥
口口⑧⑦
口口口口 |--⑤-|
口口⑤口 |⑥⑦⑧⑨|
11
口①口口 |①--②|
口口口口 |--③-|
②口口③
口②③口

口⑤口口
⑤口口口
口口④口 |④⑤--|
口口口口 |----|
12
口③③口 |①②-③|
口口口口 |--④-|
①④④①
口②②口

⑥⑨口口
⑦⑧口口
口口口口 |--⑤-|
口⑤口口 |⑥⑦⑧⑨|
13
口口①④ |①--②|
口⑤口口 |--③-|
③口⑤② |④⑤--|
口③②口 |----|
14
③①⑤① |--①-|
口⑥①④ |-②--|
④②⑥口 |③④⑤⑥|
②⑤②③ |----|
15
⑦①口⑥ |①-②③|
口④口② |-④⑤-|
口⑤⑩③ |⑥⑦⑧⑨|
⑨口⑪⑧ |-⑩⑪-|
16
①⑤①③ |--①-|
④口⑥② |-②--|
①⑥口④ |③④⑤⑥|
③②⑤② |----|
17
⑥口①⑦ |①-②③|
②口④口 |-④⑤-|
③⑩⑤口 |⑥⑦⑧⑨|
⑧⑪口⑨ |-⑩⑪-|
18
口①②口 |①--②|
①口③② |--③-|
②③口①
口口口③

口口⑥口
⑥④口口
口口④⑥ |④--⑤|
④⑤⑤口 |--⑥-|
19
口①口③ |①--②|
口口口① |--③-|
①②②口
口③口③

④口④口
口口口口
⑤口口⑤ |④--⑤|
④口口口 |----|
20
③口③口 |①--②|
口②①口 |--③-|
口①②③
②口口①

口④口④
⑥口⑥口
④口口口 |④--⑤|
口⑤⑤⑥ |--⑥-|
21
口口口口 |①--②|
口①口① |--③-|
口②②口
①③③口

⑥口口⑥
⑤口口⑤
④口口④ |④--⑤|
口口口口 |--⑥-|
22
口①①口 |①②③④|
口②②口 |----|
口③③口 |----|
口④④口 |----|
23
④口口⑧ |①-②-|
③⑤①⑦ |③④--|
⑥①⑤② |⑤-⑥-|
口⑥②口 |⑦⑧--|
24
口①①口 |①②③④|
口②②口 |----|
口③③口 |----|
口④④口 |----|
25
⑧口口④ |①-②-|
⑦①⑤③ |③④--|
②⑤①⑥ |⑤-⑥-|
口②⑥口 |⑦⑧--|
26
③①⑤① |--①-|
口⑥①④ |-②--|
④②⑥口 |③④⑤⑥|
②⑤②③ |----|
27
⑦①口⑥ |①-②③|
口④口② |-④⑤-|
口⑤⑩③ |⑥⑦⑧⑨|
⑨口⑪⑧ |-⑩⑪-|
28
①⑤①③ |--①-|
④口⑥② |-②--|
①⑥口④ |③④⑤⑥|
③②⑤② |----|
29
⑥口①⑦ |①-②③|
②口④口 |-④⑤-|
③⑩⑤口 |⑥⑦⑧⑨|
⑧⑪口⑨ |-⑩⑪-|
30
口①②口 |①--②|
①口③② |--③-|
②③口①
口口口③

口口⑥口
⑥④口口
口口④⑥ |④--⑤|
④⑤⑤口 |--⑥-|
31
口①口③ |①--②|
口口口① |--③-|
①②②口
口③口③

④口④口
口口口口
⑤口口⑤ |④--⑤|
④口口口 |----|
32
③口③口 |①--②|
口②①口 |--③-|
口①②③
②口口①

口④口④
⑥口⑥口
④口口口 |④--⑤|
口⑤⑤⑥ |--⑥-|
33
口口口口 |①--②|
口①口① |--③-|
口②②口
①③③口

⑥口口⑥
⑤口口⑤
④口口④ |④--⑤|
口口口口 |--⑥-|
34
口①①口 |①②③④|
口②②口 |----|
口③③口 |----|
口④④口 |----|
35
④口口⑧ |①-②-|
③⑤①⑦ |③④--|
⑥①⑤② |⑤-⑥-|
口⑥②口 |⑦⑧--|
36
口①①口 |①②③④|
口②②口 |----|
口③③口 |----|
口④④口 |----|
37
⑧口口④ |①-②-|
⑦①⑤③ |③④--|
②⑤①⑥ |⑤-⑥-|
口②⑥口 |⑦⑧--|
38
⑩⑫⑭① |①②③④|
⑧⑥③口 |⑤⑥⑦⑧|
口④⑤⑦ |⑨⑩⑪⑫|
②⑬⑪⑨ |⑬-⑭-|
39
口⑦口② |①②③④|
①口口⑥ |⑤⑥⑦⑧|
口⑤④口
③口口⑧

⑬口⑯⑫
口⑮⑩口
⑪口口⑭ |⑨⑩⑪⑫|
口⑨口口 |⑬⑭⑮⑯|
40
口口口口 |①②-③|
③口口③ |--④-|
口①①口
④②②④

⑤口口口
口口口口
⑦口口口 |----|
口⑥口口 |⑤-⑥⑦|
41
⑨⑤②① |-①②③|
⑪⑦④③ |④⑤⑥⑦|
⑭⑬⑧⑥ |⑧⑨⑩⑪|
口⑮⑫⑩ |⑫⑬⑭⑮|
42
⑤⑦口口 |①②③④|
口③口口 |⑤⑥⑦⑧|
口口②⑥
①口⑧④

⑮口口口
⑨⑬口口
⑪口⑫⑯ |⑨⑩⑪⑫|
口⑩口⑭ |⑬⑭⑮⑯|
43
口①②口 |①---|
口口口② |②-③-|
③口口口
口③口口

口④口口
④口口口
口口口口 |--④-|
口口口④ |----|
44
口口口口 |①②-③|
③口口③ |--④-|
口①①口
④②②④

口口口口
⑤口口口
⑦口口口 |----|
口⑧⑥口 |⑤⑥⑦⑧|
45
口⑥⑧⑨ |①②③④|
口③④⑦ |⑤⑥⑦⑧|
口①②⑤ |⑨---|
口口口口 |----|
46
口口口口 |①---|
②口口① |--②-|
①口口②
口口口口

口口⑥口
口口③⑥
⑤④口口 |--③④|
口⑤口口 |⑤-⑥-|
47
①①口口 |--①-|
口口口口 |--②-|
口口口口
口口②②

⑨口口③
口⑦⑤口
口⑥⑧口 |③④⑤⑥|
④口口⑩ |⑦⑧⑨⑩|
48
⑧口口⑥ |①---|
②⑦⑤① |--②-|
①④口② |--③④|
③口口口 |⑤⑥⑦⑧|
49
口②③口 |①-②-|
②口口③ |③-④-|
④口口①
口④①口

⑨⑧⑦⑥
口⑤⑤口
口⑤⑤口 |⑤---|
口口口口 |⑥⑦⑧⑨|
50
口口口口 |①---|
口口口口 |②-③-|
①③③①
口②②口

口口口口
口④④口
⑥口口⑥ |④---|
⑤口口⑤ |⑤-⑥-|
51
②②②② |①---|
①⑥③① |②---|
口④口⑦ |③④⑤-|
⑤口⑦口 |⑥-⑦-|
52
口①②口 |--①-|
①口口② |②-③-|
③口口口 |----|
口③口口 |----|
53
⑤③②⑪ |①-②-|
③⑦⑨② |③-④-|
①⑩⑧④ |⑤⑥⑦⑧|
⑫①④⑥ |⑨⑩⑪⑫|
54
口口口口 |①---|
①口口口 |--②③|
口口②①
口口口③

④口口⑥
⑨⑤⑦口
口口口口 |④⑤⑥⑦|
⑧口⑨口 |⑧-⑨-|
55
②口口② |①---|
口口口① |②---|
口口口口
口①口口

口口口口
③口口⑤
口④⑥口 |③④⑤⑥|
⑦口口⑦ |⑦---|
56
①②③④ |①②③④⑤⑥|
⑤⑥⑦⑧ |⑦⑧⑨⑩⑪⑫|
⑨⑩⑪⑫
口口口口

⑰⑱⑲⑳
ⒶⒷⒸⒹ
口口口口 |⑬⑭⑮⑯⑰⑱|
⑬⑭⑮⑯ |⑲⑳ⒶⒷⒸⒹ|
57
⑨⑩⑪⑫ |①②③④⑤⑥|
口口口口 |⑦⑧⑨⑩⑪⑫|
①②③④
⑤⑥⑦⑧

口口口口
⑮⑬⑬⑮
⑮⑭⑭⑮ |⑬--⑭|
⑮口口⑮ |--⑮-|
58
口④④口 |①---|
口③③口 |②---|
口②②口 |③---|
口①①口 |④---|
59
口④口④ |①-②-|
③口③口 |③-④-|
口②口②
①口①口

口口⑤口
口⑤口⑤
口口⑤口 |----|
口口⑤口 |⑤---|

不確定度: 0

最終更新:2016年09月25日 01:46