Destiny lovers
くにたけ みゆき

BASIC

Level: 3
BPM: 170
Notes: 165

1
口口口口 |----|
口口口口 |----|
口口口口 |----|
口口口口 |----|
2
①口口口 |①---|
口口②口 |--②-|
口口口口 |----|
口口口口 |----|
3
口口口① |①---|
口②口口 |--②-|
口口口口 |----|
口口口口 |----|
4
口口口口 |①---|
口口口口 |②---|
①②③口 |③---|
口口口口 |----|
5
口口口口 |①---|
口口口口 |----|
口口口口 |----|
口①①口 |----|
6
口口口① |①---|
口②口口 |--②-|
口口口口 |----|
口口口口 |----|
7
①口口口 |①---|
口口②口 |--②-|
口口口口 |----|
口口口口 |----|
8
口口口口 |①---|
口口口口 |----|
①口口① |----|
口口口口 |----|
9
①口口① |①---|
口口口口 |----|
口口口口 |----|
口口口口 |----|
10
口口口口 |①---|
①①口口 |----|
口口口口 |----|
口口口口 |----|
11
口口口口 |①---|
口口①① |----|
口口口口 |----|
口口口口 |----|
12
口口口口 |①---|
口口口口 |----|
口①①口 |----|
口口口口 |----|
13
口口口口 |①---|
①口口① |----|
口口口口 |----|
口口口口 |----|
14
口口口口 |①---|
口口口口 |②---|
③②①口 |③---|
口口口口 |----|
15
口口口口 |①---|
口①口口 |----|
口口口口 |②---|
口②口口 |----|
16
口口口口 |①---|
口口口口 |②---|
口①②③ |③---|
口口口口 |----|
17
口口口口 |①---|
口口①口 |----|
口口口口 |②---|
口口②口 |----|
18
口口口口 |①---|
口口口口 |②---|
③②①口 |③---|
口口口口 |----|
19
口口口口 |①---|
口①口口 |----|
口口口口 |②---|
口②口口 |----|
20
①口口① |①---|
②口口② |----|
口口口口 |②---|
口口口口 |----|
21
口口口口 |①---|
口口口口 |----|
①口口① |②---|
②口口② |----|
22
口口口口 |①---|
口口口口 |②---|
口①②③ |③---|
口口口口 |----|
23
口口口口 |①---|
口口①口 |----|
口口口口 |②---|
口口②口 |----|
24
口口口口 |①---|
口口口口 |②---|
③②①口 |③---|
口口口口 |----|
25
口口口口 |①---|
口①口口 |----|
口口口口 |②---|
口②口口 |----|
26
口口口口 |①---|
口口口口 |②---|
口①②③ |③---|
口口口口 |----|
27
口口口口 |①---|
口口①口 |----|
口口口口 |②---|
口口②口 |----|
28
①口口① |①---|
②口口② |----|
口口口口 |②---|
口口口口 |----|
29
口口口口 |①---|
口口口口 |----|
①口口① |②---|
②口口② |----|
30
口口口口 |----|
口口口口 |①---|
口③口口 |②---|
口①②口 |③---|
31
口口口口 |①---|
口口口口 |----|
口口①口 |②---|
口口口② |----|
32
口口口口 |----|
口口口口 |①---|
口口③口 |②---|
口②①口 |③---|
33
口口口口 |①---|
口口口口 |----|
口①口口 |②---|
②口口口 |----|
34
口口口口 |----|
口口口口 |①---|
口③口口 |②---|
口①②口 |③---|
35
口④口口 |①---|
口②③口 |②---|
口口①口 |③---|
口口口口 |④---|
36
口口①口 |①---|
②口口② |----|
口口口口 |②---|
口口口口 |----|
37
口口口口 |①---|
口口口口 |----|
①口口① |----|
口口口口 |----|
38
①口口口 |①---|
口口②口 |--②-|
口口口口 |----|
口口口口 |----|
39
口口口① |①---|
口②口口 |--②-|
口口口口 |----|
口口口口 |----|
40
口口口口 |①---|
口口口口 |②---|
①②③口 |③---|
口口口口 |----|
41
口口口口 |①---|
口口口口 |----|
口口口口 |----|
口①①口 |----|
42
口口口① |①---|
口②口口 |--②-|
口口口口 |----|
口口口口 |----|
43
①口口口 |①---|
口口②口 |--②-|
口口口口 |----|
口口口口 |----|
44
口口口口 |①---|
口口口口 |----|
①口口① |----|
口口口口 |----|
45
①口口① |①---|
口口口口 |----|
口口口口 |----|
口口口口 |----|
46
口口口① |①---|
口②口口 |--②-|
口口口口 |----|
口口口口 |----|
47
①口口口 |①---|
口口②口 |--②-|
口口口口 |----|
口口口口 |----|
48
口口口口 |①---|
口口口口 |②---|
口③②① |③---|
口口口口 |----|
49
口口口口 |①---|
口口口口 |----|
口口口口 |----|
口①①口 |----|
50
①口口口 |①---|
口口②口 |--②-|
口口口口 |----|
口口口口 |----|
51
口口口① |①---|
口②口口 |--②-|
口口口口 |----|
口口口口 |----|
52
口口口口 |①---|
口口口口 |----|
①口口① |----|
口口口口 |----|
53
①①①① |①---|
口口口口 |----|
口口口口 |----|
口口口口 |----|
54
①口口① |①---|
口口口口 |----|
口口口口 |----|
口口口口 |----|
55
口口口口 |①---|
口①①口 |----|
口②②口 |②---|
口口口口 |----|
56
口口口口 |①---|
口口口口 |----|
口口口口 |----|
口①①口 |----|
57
口④口口 |①---|
口口③口 |②---|
口②口口 |③---|
口口①口 |④---|
58
口口①口 |①---|
口②口口 |②---|
口口③口 |③---|
口④口口 |④---|
59
口③④口 |①---|
②口口口 |②---|
①口口口 |③---|
口口口口 |④---|
60
口口口口 |①---|
口口口① |②---|
口口口② |③---|
口④③口 |④---|
61
口口口口 |①---|
口②③口 |②---|
口①④口 |③---|
口口口口 |④---|
62
口口口口 |①---|
①①口口 |----|
口口口口 |----|
口口口口 |----|
63
口口口口 |①---|
口口①① |----|
口口口口 |----|
口口口口 |----|
64
口口口口 |①---|
口口口口 |----|
口①①口 |----|
口①①口 |----|

不確定度: 0

最終更新:2016年09月25日 01:45