Destiny lovers
くにたけ みゆき

ADVANCED

Level: 6
BPM: 170
Notes: 333

1
口口口口 |----|
口口②口 |----|
口口①口 |----|
口口口口 |①-②-|
2
口①口① |①---|
口口口口 |--②-|
口口口口 |----|
②口②口 |----|
3
①口①口 |①---|
口口④③ |--②-|
口口口口 |----|
口②口② |③-④-|
4
口口口口 |①---|
④③口口 |②-③-|
⑤①②口 |④-⑤-|
口口口口 |----|
5
口口口口 |①---|
口③口口 |----|
口②口口 |----|
口①①口 |②-③-|
6
①口①口 |①---|
口口口口 |--②-|
口口口口 |----|
口②口② |----|
7
口①口① |①---|
口③③口 |--②-|
口口口口 |----|
②口②口 |③---|
8
③口口③ |①---|
口②②口 |----|
口①①口 |--②-|
口口口口 |③---|
9
口口口口 |①---|
口口口口 |----|
口口口口 |----|
①口口① |----|
10
口③③口 |①---|
口②口① |--②-|
②口①口 |----|
口口口口 |③---|
11
口③③口 |①---|
①口②口 |--②-|
口①口② |----|
口口口口 |③---|
12
口③③口 |①---|
口②口① |--②-|
②口①口 |----|
口口口口 |③---|
13
①口口① |①---|
口口口口 |----|
口③②口 |②-③-|
口⑤④口 |④-⑤-|
14
口④②口 |①---|
口⑤③口 |②-③-|
①口口① |④-⑤-|
口口口口 |----|
15
口口口口 |①-②-|
③口口① |----|
口口口口 |③-④-|
②口口④ |----|
16
口口口① |----|
口口②口 |①-②-|
口③口口 |③---|
口口口口 |----|
17
④口口口 |①-②-|
口③口口 |----|
口口口② |③-④-|
口口①口 |----|
18
口③①口 |----|
口④②口 |①-②-|
口口口口 |③-④-|
口口⑤口 |--⑤-|
19
口口口口 |①-②-|
口口口口 |----|
①②口口
口口口口

口口口口
口口④③
⑤口口口 |③-④-|
口口口口 |--⑤-|
20
②②①① |①---|
口口口口 |②---|
口④③口 |③-④-|
口口口口 |----|
21
口口口口 |①---|
口②③口 |----|
口口口口 |②-③-|
①口口① |----|
22
口②④口 |①---|
口③⑤口 |②-③-|
①口口① |④-⑤-|
口口口口 |----|
23
口口口口 |①-②-|
①口口③ |----|
口口口口 |③-④-|
④口口② |----|
24
①口口口 |----|
口②口口 |①-②-|
口口③口 |③-④-|
口口口④ |----|
25
口口口④ |①-②-|
口口③口 |----|
②口口口 |③-④-|
口①口口 |----|
26
口①③口 |----|
口②④口 |①-②-|
口口口口 |③-④-|
口⑤口口 |--⑤-|
27
口口口口 |①-②-|
口口口口 |----|
口口②①
口口口口

口口口口
③④口口
口口口⑤ |③-④-|
口口口口 |--⑤-|
28
①①②② |①---|
口口口口 |②---|
口③④口 |③-④-|
口口口口 |----|
29
口口口口 |①---|
口④③口 |②---|
口口口口 |③-④-|
①①②② |----|
30
①口口① |①---|
口口口口 |②---|
口②③④ |③---|
口②③④ |④---|
31
①口口口 |①---|
口口③② |--②-|
口口口口 |③---|
口口口口 |----|
32
口口口口 |----|
口口口口 |①---|
③②①口 |②---|
③②①口 |③---|
33
口②①口 |①---|
②③③① |--②-|
口口口口 |----|
口口口口 |③---|
34
口口口口 |----|
口口口口 |①---|
①②口③ |②---|
①②口③ |③---|
35
④口③口 |①---|
口②口口 |②-③-|
口口①口 |----|
口口①口 |④---|
36
口③③① |①---|
口口口口 |--②-|
口②②口 |----|
口口口口 |③---|
37
口口口口 |①---|
①①①① |----|
口口口口
口口口口

口口口口
口口③口
口口②口 |----|
口口口口 |②-③-|
38
口①口① |①---|
口口口口 |--②-|
口口口口 |----|
②口②口 |----|
39
①口①口 |①---|
口口④③ |--②-|
口口口口 |----|
口②口② |③-④-|
40
口口口口 |①---|
④③口口 |②-③-|
⑤①②口 |④-⑤-|
口口口口 |----|
41
口口口口 |①---|
口③口口 |----|
口②口口 |----|
口①①口 |②-③-|
42
①口①口 |①---|
口口口口 |--②-|
口口口口 |----|
口②口② |----|
43
口①口① |①---|
口③③口 |--②-|
口口口口 |----|
②口②口 |③---|
44
③口口③ |①---|
口②②口 |----|
口①①口 |--②-|
口口口口 |③---|
45
口口口口 |①---|
口④口口 |----|
口③口口 |--②-|
①②口① |③-④-|
46
①口①口 |①---|
口口③口 |--②-|
口口口口 |----|
口②口② |--③-|
47
口①口① |①---|
③④口口 |--②-|
口口口口 |----|
②口②口 |③-④-|
48
口口口口 |①---|
口口③④ |②-③-|
口②①⑤ |④-⑤-|
口口口口 |----|
49
口口口口 |①---|
口口④口 |----|
口口③口 |--②-|
①口②① |③-④-|
50
口①口① |①---|
口③口口 |--②-|
口口口口 |----|
②口②口 |--③-|
51
①口①口 |①---|
④③③④ |--②-|
口口口口 |--③-|
口②口② |④---|
52
②②②② |①---|
口口口口 |----|
口①①口 |----|
口口口口 |②---|
53
口口口口 |①---|
口口③口 |②---|
口②口④ |③---|
①①①① |④---|
54
口口口口 |①---|
口③口① |②---|
④口②口 |③---|
口口口口 |④---|
55
口②口① |①---|
③口④口 |--②-|
口口口口 |--③-|
口口口口 |--④-|
56
口口口③ |--①-|
口口口口 |----|
口口口① |--②-|
口②口口 |--③-|
57
①口口口 |--①-|
口③②口 |②-③-|
口⑤④口 |④-⑤-|
口⑦⑥口 |⑥-⑦-|
58
口②①口 |①-②-|
口④③口 |③-④-|
⑥口口⑤ |⑤---|
⑥口口⑤ |⑥---|
59
④③②① |①-②-|
⑤⑥⑦⑧ |③-④-|
口口口口 |⑤-⑥-|
口口口口 |⑦-⑧-|
60
口口口口 |①-②-|
口口口口 |③-④-|
④③②① |⑤---|
口⑤⑤口 |----|
61
①口口② |①---|
③口①口 |----|
口口口④ |②--③|
口口口口 |--④-|
62
口③③口 |①---|
口①口② |--②-|
①口②口 |----|
口口口口 |③---|
63
口③③口 |①---|
②口①口 |--②-|
口②口① |----|
口口口口 |③---|
64
口口口口 |①---|
口口口口 |----|
口口口口 |----|
①①①① |----|

不確定度: 0

最終更新:2016年09月25日 01:44