Destiny lovers
くにたけ みゆき

EXTREME

Level: 9
BPM: 170
Notes: 685

1
口口口口 |----|
口口①② |----|
②①口口 |----|
口口口口 |①-②-|
2
口①口③ |①---|
①②④口 |②-③-|
口④②① |----|
③口①口 |④---|
3
③口①口 |①---|
口②口① |②-③-|
①口②口
口①口③

口口口口
④口口④
口口口口 |----|
口⑤⑤口 |④-⑤-|
4
口③口口 |①---|
口②①口 |②-③-|
⑤①④④ |④-⑤-|
口口口口 |----|
5
口口①口 |①-②③|
口①⑤口 |④-⑤-|
口⑤口口
②口③④

⑧⑦口⑥
⑩⑨口口
口口⑨⑩ |⑥⑦⑧-|
口口口口 |⑨-⑩-|
6
③口①口 |①---|
口④②① |②-③-|
①②④口 |----|
口①口③ |④---|
7
⑤①⑤③ |①---|
①⑤②④ |②-③-|
④②口① |--④-|
③口①口 |⑤---|
8
口②口② |①---|
④③⑤③ |②---|
口④①⑤ |③-④-|
④①⑤① |⑤---|
9
②⑥①⑦ |①②③④|
口口口口 |⑤-⑥⑦|
④口③口
口口口⑤

口口⑬口
⑧口⑨口
口口口口 |⑧⑨⑩-|
⑩⑫⑪口 |⑪⑫⑬-|
10
口口口口 |①②③④|
⑥②⑦① |⑤-⑥⑦|
⑧④⑨③ |⑧⑨⑩-|
⑩⑫⑪⑤ |⑪-⑫-|
11
⑥②⑦① |①②③④|
口④口③ |⑤-⑥⑦|
口口口⑤
口口口口

口口口⑪
⑧口⑨口
⑩口⑪口 |⑧⑨⑩-|
口⑫口口 |⑪-⑫-|
12
口口口口 |①②③④|
⑥②⑦① |⑤-⑥⑦|
口④口③
口口口⑤

口⑫⑪⑫
口口口⑪
⑧口⑨口 |⑧⑨⑩-|
⑩口口口 |⑪-⑫-|
13
⑨口口⑧ |①---|
⑦①口⑥ |----|
⑤①口④ |②③④⑤|
③①①② |⑥⑦⑧⑨|
14
口①①口 |①---|
口④⑤口 |②-③-|
口口③口 |④-⑤-|
⑥口②口 |⑥---|
15
口口①⑦ |①-②-|
⑥④口口 |③---|
口②口① |④-⑤-|
④口⑤③ |⑥-⑦-|
16
①口口口 |----|
口②口口 |①-②-|
口口③口 |③---|
④口口口 |④---|
17
口口口口 |①-②-|
口口口口 |③---|
口①口①
口②③②

⑦口口口
④口④口
⑤⑥⑤口 |④-⑤-|
口口口口 |⑥-⑦-|
18
口①①口 |----|
口②②⑤ |①-②-|
口④④口 |③-④-|
口③③口 |--⑤-|
19
口①口③ |①-②-|
①②②口 |③---|
口口口口
口口口口

口口口口
口⑦⑦口
⑥口④口 |④-⑤-|
口⑤⑤④ |⑥-⑦-|
20
口②①口 |①---|
①口口② |②---|
口④③口 |③-④-|
口④③口 |----|
21
①口①口 |①---|
⑤①④口 |②---|
⑥口③口 |③-④-|
②口口② |⑤-⑥-|
22
①①①① |①---|
口④⑤口 |②-③-|
口口③口 |④-⑤-|
⑥口②口 |⑥---|
23
口④①⑦ |①-②-|
④口口① |③---|
②口口⑤ |④-⑤-|
⑥②⑤③ |⑥-⑦-|
24
①口口口 |----|
口②口口 |①-②-|
口口③口 |③-④-|
⑤口口④ |⑤---|
25
⑦口口口 |①-②-|
④④②② |③---|
①③⑥⑤ |④-⑤-|
口①⑤口 |⑥-⑦-|
26
口⑤②① |----|
口口②① |①-②-|
③④口口 |③-④-|
③④口口 |--⑤-|
27
口口口口 |①-②-|
口①②口 |③---|
③⑧⑦⑥ |④-⑤-|
口⑤④口 |⑥⑦⑧-|
28
①口口② |①---|
③②①③ |②---|
④口口④ |③-④-|
口口口口 |----|
29
③口口③ |①---|
④①②④ |②---|
口口口口 |③-④-|
②口口① |----|
30
②口口口 |①---|
口②口口 |②---|
口①①口
口①①②

口③口口
③口口④
④④口③ |③---|
口口口口 |④---|
31
口口③⑤ |①---|
⑤①①口 |②-③-|
口④口口 |④---|
②口口口 |⑤---|
32
①④②③ |①---|
③②④① |②---|
口④②③ |③---|
③②④口 |④---|
33
①口④④ |①-②-|
口②口① |③-④-|
①口③口
④④口①

口口口口
⑦口⑤⑦
⑦⑥口⑦ |⑤-⑥-|
口口口口 |⑦---|
34
口口口② |①---|
口①②口 |②---|
口口①口
②口口口

口口③口
④口口③
③口④④ |③---|
口口口口 |④---|
35
②口口③ |①---|
口①①口 |②-③-|
口④④口 |----|
口口口口 |④---|
36
口②②口 |①---|
①①①① |--②-|
口口口口
口②②口

口口口口
③口口③
③口口③ |----|
口口口口 |③---|
37
口口④④ |①-②-|
口①①口 |③-④-|
口①①口
③口口②

口口口口
口口⑤⑥
⑥⑤口口 |----|
口口口口 |⑤-⑥-|
38
口①口③ |①---|
①②④口 |②-③-|
口④②① |----|
③口①口 |④---|
39
③口①口 |①---|
口②口① |②-③-|
①口②口
口①口③

口口口口
④口口④
口口口口 |----|
口⑤⑤口 |④-⑤-|
40
口③口口 |①---|
口②①口 |②-③-|
⑤①④④ |④-⑤-|
口口口口 |----|
41
口口①口 |①-②③|
口①⑤口 |④-⑤-|
口⑤口口
②口③④

⑧⑦口⑥
⑩⑨口口
口口⑨⑩ |⑥⑦⑧-|
口口口口 |⑨-⑩-|
42
③口①口 |①---|
口④②① |②-③-|
①②④口 |----|
口①口③ |④---|
43
⑤①⑤③ |①---|
①⑤②④ |②-③-|
④②口① |--④-|
③口①口 |⑤---|
44
口②口② |①---|
④③⑤③ |②---|
口④①⑤ |③-④-|
④①⑤① |⑤---|
45
④③②① |①②③④|
口口口口 |--⑤⑥|
⑤⑥口口
口口口口

口⑪口⑩
⑨口口口
口口⑦⑧ |⑦⑧⑨-|
口口口口 |⑩-⑪-|
46
③口①口 |①---|
③②①③ |②-③-|
口口②口
口①口③

口口口口
口口口口
口口口④ |----|
口⑤口口 |④-⑤-|
47
口①口③ |①---|
③①②③ |②-③-|
口②口口
③口①口

④口口口
口⑤口口
口口口口 |----|
口口口口 |④-⑤-|
48
口口③口 |①---|
⑤⑤②④ |②-③-|
口①①口 |④-⑤-|
口口口口 |----|
49
⑧口⑨⑥ |①-②③|
口口口⑦ |④-⑤-|
⑤①①口 |⑥-⑦-|
②口③④ |⑧-⑨-|
50
口①口③ |①---|
③①②③ |②-③-|
口②口口
③口①口

口口口口
口口口口
④口口口 |----|
口口⑤口 |④-⑤-|
51
③⑤①⑤ |①---|
③②①③ |②-③-|
口④②④ |--④-|
口①口③ |⑤---|
52
④④④④ |①---|
口①口口 |②---|
口口①口 |③---|
③③②② |④---|
53
口口口口 |①②③④|
⑥②⑦① |⑤-⑥⑦|
⑧④⑨③ |⑧⑨⑩-|
⑩⑪⑪⑤ |⑪---|
54
⑥②⑦① |①②③④|
⑧④⑨③ |⑤-⑥⑦|
⑩口口⑤ |⑧⑨⑩-|
口⑪⑪口 |⑪---|
55
③口口① |①---|
②①③② |--②-|
③②④① |--③-|
④口口④ |--④-|
56
口①口口 |--①-|
口口口① |----|
口①口口
口口口口

⑤口口口
口②口口
口⑤③口 |--②③|
口口口④ |④-⑤-|
57
口口④③ |--①②|
⑧⑦⑥⑤ |③④⑤⑥|
⑩⑨⑫⑪ |⑦⑧⑨⑩|
②①⑭⑬ |⑪⑫⑬⑭|
58
①②③④ |①②③④|
⑧⑦⑥⑤ |⑤⑥⑦⑧|
口口口口
口口口口

⑪口口口
口口口口
⑪⑨⑩口 |⑨---|
⑨⑨⑩⑩ |⑩-⑪-|
59
⑭④⑪① |-①②③|
⑧②⑤⑦ |④⑤⑥⑦|
⑫⑩⑮③ |⑧⑨⑩⑪|
口⑥⑬⑨ |⑫⑬⑭⑮|
60
⑪⑤口② |①②③④|
口①⑥⑧ |⑤⑥⑦⑧|
⑪⑨口④ |⑨⑩--|
③⑦⑩口 |⑪---|
61
口①③① |①---|
④②口④ |②-③-|
⑤口①⑤ |④--⑤|
⑥口口⑥ |--⑥-|
62
⑥口⑪⑦ |①②③④|
⑧②①⑨ |⑤-⑥⑦|
⑩④③口 |⑧⑨⑩-|
⑫口⑤⑬ |⑪⑫⑬-|
63
⑦⑪口⑥ |①②③④|
⑨①②⑧ |⑤-⑥⑦|
口③④⑩ |⑧⑨⑩-|
⑬⑤口⑫ |⑪⑫⑬-|
64
口口口口 |①---|
口①①口 |----|
口①①口 |----|
口①①口 |----|
65
口口①① |①---|
口口口口 |----|
口口口口 |----|
口口口口 |----|

不確定度: 0

最終更新:2016年09月25日 01:44