負けないよ…-Runners High-
猫大樹

BASIC

Level: 4
BPM: 155
Notes: 258

1
口口口口 |----|
口口口口 |----|
口口口口 |----|
口口口口 |----|
2
①②口口 |①---|
口口口口 |----|
口口口口 |②---|
口口口口 |----|
3
口口①② |①---|
口口口口 |----|
口口口口 |②---|
口口口口 |----|
4
口口口口 |①---|
口口②① |----|
口口口口 |②---|
口口口口 |----|
5
口口口口 |①---|
②①口口 |----|
口口口口 |②---|
口口口口 |----|
6
口口口口 |①---|
口口口口 |----|
①②口口 |②---|
口口口口 |----|
7
口口口口 |①---|
口口口口 |----|
口口①② |②---|
口口口口 |----|
8
口口口口 |①---|
口口口口 |----|
口口口口 |②---|
口口②① |----|
9
口口口口 |①---|
口口口口 |----|
口口口口 |②---|
②①口口 |----|
10
口口口口 |①---|
口口口口 |--②-|
口①①口 |----|
口②②口 |----|
11
口口口口 |----|
口口口口 |----|
口口口口 |----|
口口口口 |----|
12
口口口口 |①---|
口①①口 |--②-|
口②②口 |----|
口口口口 |----|
13
口口口口 |----|
口口口口 |----|
口口口口 |----|
口口口口 |----|
14
口口口口 |①---|
口口口口 |--②-|
口①①口 |----|
口②②口 |----|
15
口口口口 |----|
口口口口 |----|
口口口口 |----|
口口口口 |----|
16
口口口口 |①---|
口①①口 |--②-|
口②②口 |----|
口口口口 |----|
17
口口口口 |----|
口口口口 |----|
口口口口 |----|
口口口口 |----|
18
口口口口 |①---|
口口口口 |--②-|
口口①① |----|
口口②② |----|
19
口口口口 |----|
口口口口 |----|
口口口口 |----|
口口口口 |----|
20
口口口口 |①---|
口口①① |--②-|
口口②② |----|
口口口口 |----|
21
口口口口 |----|
口口口口 |----|
口口口口 |----|
口口口口 |----|
22
口口口口 |①---|
口口口口 |--②-|
①①口口 |----|
②②口口 |----|
23
口口口口 |----|
口口口口 |----|
口口口口 |----|
口口口口 |----|
24
口口口口 |①---|
①①口口 |--②-|
②②口口 |----|
口口口口 |----|
25
口口口口 |----|
口口口口 |----|
口口口口 |----|
口口口口 |----|
26
口口口口 |①---|
口②口口 |----|
口①口口 |②---|
口口口口 |----|
27
口口口口 |①---|
口口②口 |----|
口口①口 |②---|
口口口口 |----|
28
口口口口 |①---|
口口②口 |----|
口口口① |②---|
口口口口 |----|
29
口口口口 |①---|
口②②口 |----|
①口口口 |②---|
口口口口 |----|
30
①②③④ |①---|
口口口口 |②---|
口口口口 |③---|
口口口口 |④---|
31
口口口口 |①---|
④③②① |②---|
口口口口 |③---|
口口口口 |④---|
32
口口口口 |①---|
口口口口 |②---|
①②③④ |③---|
口口口口 |④---|
33
口口口口 |①---|
口口口口 |②---|
口口口口 |③---|
④③②① |④---|
34
口口口口 |①---|
口口口口 |②---|
①②③④ |③---|
口口口口 |④---|
35
口口口口 |①---|
④③②① |②---|
口口口口 |③---|
口口口口 |④---|
36
①②③④ |①---|
口口口口 |②---|
口口口口 |③---|
口口口口 |④---|
37
口口口口 |①---|
口口②① |②---|
口③③口 |③---|
口口口口 |----|
38
④口口口 |①---|
③口口口 |②---|
②口口口 |③---|
①口口口 |④---|
39
口①口口 |①---|
口②口口 |②---|
口③口口 |③---|
口④口口 |④---|
40
口口④口 |①---|
口口③口 |②---|
口口②口 |③---|
口口①口 |④---|
41
口口口① |①---|
口口口② |②---|
口口口③ |③---|
口口口④ |④---|
42
口④口口 |①---|
口口③口 |②---|
口②口口 |③---|
口口①口 |④---|
43
口口①口 |①---|
口②口口 |②---|
口口③口 |③---|
口④口口 |④---|
44
口④口口 |①---|
口口③口 |②---|
口②口口 |③---|
口口①口 |④---|
45
③口①③ |①---|
口②口口 |②---|
口口口口 |③---|
口口口口 |----|
46
口口口口 |①---|
②①①② |----|
口口口口 |②---|
口口口口 |----|
47
口口口口 |①---|
口口口口 |----|
②①①② |②---|
口口口口 |----|
48
口口口口 |①---|
②①①② |----|
口口口口 |②---|
口口口口 |----|
49
口口口口 |①---|
口口口口 |----|
②①①② |②---|
口口口口 |----|
50
口口口口 |①---|
口口口口 |----|
口②②口 |②---|
口①①口 |----|
51
口②②口 |①---|
口①①口 |----|
口口口口 |②---|
口口口口 |----|
52
①口口① |①---|
②口口② |----|
口口口口 |②---|
口口口口 |----|
53
口口口口 |①---|
口口口口 |----|
①口口① |②---|
②口口② |----|
54
口口口口 |----|
口口口口 |----|
口口口口 |----|
口口口口 |----|
55
口口口口 |----|
口口口口 |----|
口口口口 |----|
口口口口 |----|
56
口④④口 |①---|
口③口口 |②---|
口①②口 |③---|
口口口口 |④---|
57
口④④口 |①---|
口口③口 |②---|
口②①口 |③---|
口口口口 |④---|
58
口④④口 |①---|
③口口口 |②---|
①口口② |③---|
口口口口 |④---|
59
口④④口 |①---|
口口口③ |②---|
②口口① |③---|
口口口口 |④---|
60
口④④口 |①---|
口口②③ |②---|
口①口口 |③---|
口口口口 |④---|
61
口④④口 |①---|
③②口口 |②---|
口口①口 |③---|
口口口口 |④---|
62
口口口口 |①---|
口口口口 |②---|
①口口④ |③---|
口②③口 |④---|
63
④③③④ |①---|
口②①口 |②---|
口口口口 |③---|
口口口口 |④---|
64
口④④口 |①---|
③口①口 |②---|
口②口口 |③---|
口口口口 |④---|
65
口④④口 |①---|
口①口③ |②---|
口口②口 |③---|
口口口口 |④---|
66
口④④口 |①---|
口②口口 |②---|
③口①口 |③---|
口口口口 |④---|
67
口④④口 |①---|
口口②口 |②---|
口①口③ |③---|
口口口口 |④---|
68
口④④口 |①---|
口②口③ |②---|
口口①口 |③---|
口口口口 |④---|
69
口④④口 |①---|
③口②口 |②---|
口①口口 |③---|
口口口口 |④---|
70
口口口口 |①---|
口口口口 |②---|
④口口① |③---|
口③②口 |④---|
71
④③③④ |①---|
口①②口 |②---|
口口口口 |③---|
口口口口 |④---|
72
口口口口 |①---|
④①③④ |②---|
口②②口 |③---|
口口口口 |④---|
73
口①口口 |①---|
④②②④ |②---|
口口③口 |③---|
口口口口 |④---|
74
口②②口 |①---|
④③①④ |②---|
口口口口 |③---|
口口口口 |④---|
75
③③③③ |①---|
口②②口 |②---|
口口①口 |③---|
口口口口 |----|

不確定度: 0

最終更新:2016年09月21日 01:08