AIR RAID FROM THA UNDAGROUND
GUHROOVY

ADVANCED

Level: 9
BPM: 180
Notes: 744

1
口口口口 |----|
口口口口 |----|
口口口口 |----|
口口口口 |----|
2
口口口口 |①-②-|
①②③④ |③-④-|
口口口口 |----|
口口口口 |----|
3
口口口口 |----|
口口口口 |----|
口口口口 |----|
口口口口 |----|
4
口口口口 |①-②-|
口口口口 |③-④-|
④③②① |----|
口口口口 |----|
5
口口口口 |----|
口口口口 |----|
口口口口 |----|
口口口口 |----|
6
口口口口 |①-②-|
①②③④ |③-④-|
口口口口 |----|
口口口口 |----|
7
口口口口 |----|
口口口口 |----|
口口口口 |----|
口口口口 |----|
8
口口口口 |①-②-|
口口口口 |③-④-|
④③②① |----|
口口口口 |----|
9
口口口口 |----|
口口口口 |----|
口口口口 |----|
口口口口 |----|
10
口口口④ |①---|
①口口① |--②③|
②③口口 |④---|
①口口① |----|
11
口口③② |①---|
口口口口 |--②③|
④⑤⑥⑦ |④-⑤-|
①口口① |⑥-⑦-|
12
口口口④ |①---|
口口口口 |--②③|
②③口口 |④---|
①口口① |----|
13
口口④③ |①---|
②口口② |②-③④|
⑤⑥⑦⑧ |⑤-⑥-|
①口口① |⑦-⑧-|
14
⑧⑦⑥⑤ |①---|
②口口② |②-③④|
③④口口 |⑤-⑥-|
①口口① |⑦-⑧-|
15
口口④③ |①---|
②口口② |②-③④|
⑤⑥⑦⑧ |⑤-⑥-|
①口口① |⑦-⑧-|
16
⑧⑦⑥⑤ |①---|
②口口② |②-③④|
③④口口 |⑤-⑥-|
①口口① |⑦-⑧-|
17
④④④④ |①---|
②②②② |②---|
③③③③ |③---|
①①①① |④---|
18
④口口⑥ |①---|
②口口② |②---|
③口口⑤ |③-④-|
①口口① |⑤-⑥-|
19
口口口口 |①---|
②口口② |②---|
③④⑤⑥ |③-④-|
①口口① |⑤-⑥-|
20
④口口⑥ |①---|
②口口② |②---|
③口口⑤ |③-④-|
①口口① |⑤-⑥-|
21
口口口口 |①---|
②口口② |②---|
③④⑤⑥ |③-④-|
①口口① |⑤-⑥-|
22
④口口⑥ |①---|
②口口② |②---|
③口口⑤ |③-④-|
①口口① |⑤-⑥-|
23
口口口口 |①---|
②口口② |②---|
③④⑤⑥ |③-④-|
①口口① |⑤-⑥-|
24
②②②② |①---|
口口口口 |----|
口口口口 |②---|
①①①① |----|
25
⑤⑤⑤⑤ |①---|
①口口② |②---|
①④④② |③-④-|
口③③口 |⑤---|
26
④口口⑥ |①---|
②口口② |②---|
③口口⑤ |③-④-|
①口口① |⑤-⑥-|
27
口口口口 |①---|
②口口② |②---|
③④⑤⑥ |③-④-|
①口口① |⑤-⑥-|
28
④口口⑥ |①---|
②口口② |②---|
③口口⑤ |③-④-|
①口口① |⑤-⑥-|
29
口口口口 |①---|
②口口② |②---|
③④⑤⑥ |③-④-|
①口口① |⑤-⑥-|
30
④口口⑥ |①---|
②口口② |②---|
③口口⑤ |③-④-|
①口口① |⑤-⑥-|
31
口口口口 |①---|
口②②口 |②---|
③④⑤⑥ |③-④-|
口①①口 |⑤-⑥-|
32
①②③④ |①---|
①②③④ |②---|
口口口口 |③---|
口口口口 |④---|
33
④④④④ |①---|
口口口口 |②---|
②③③② |③---|
①③③① |④---|
34
口⑨⑧⑦ |①---②-|
②③③② |③---|
④⑤⑥口 |④-⑤-⑥-|
①口口① |⑦-⑧-⑨-|
35
⑧口口⑦ |①---②-|
②③③② |③---|
④⑤⑥口 |④-⑤-⑥-|
①口口① |⑦---⑧-|
36
口⑨⑧⑦ |①---②-|
②③③② |③---|
④⑤⑥口 |④-⑤-⑥-|
①口口① |⑦-⑧-⑨-|
37
⑧口口⑦ |①---②-|
②③③② |③---|
④⑤⑥口 |④-⑤-⑥-|
①口口① |⑦---⑧-|
38
口⑨⑧⑦ |①---②-|
②③③② |③---|
④⑤⑥口 |④-⑤-⑥-|
①口口① |⑦-⑧-⑨-|
39
⑧口口⑦ |①---②-|
②③③② |③---|
④⑤⑥口 |④-⑤-⑥-|
①口口① |⑦---⑧-|
40
口⑧⑧口 |①---②-|
②③③② |③---|
④⑤⑥口 |④-⑤-⑥-|
①⑦⑦① |⑦---⑧-|
41
口口口口 |①---|
①④④① |②---|
口③③口 |③---|
②口口② |④---|
42
①①口③ |①---|
口口口② |--②-|
口口③口 |--③-|
口口②口 |----|
43
①①口③ |①---|
④④口② |--②-|
口口③口 |--③-|
②②②口 |④---|
44
①①口③ |①---|
口口口② |--②-|
口口③口 |--③-|
口口②口 |----|
45
①①口③ |①---|
口口口② |--②-|
口口③口 |--③-|
口口②口 |----|
46
①①口③ |①---|
口口口② |--②-|
口口③口 |--③-|
口口②口 |----|
47
①①口③ |①---|
④④口② |--②-|
口口③口 |--③-|
②②②口 |④---|
48
①①口③ |①---|
口口口② |--②-|
口口③口 |--③-|
口口②口 |----|
49
①①口③ |①---|
口口口② |--②-|
口口③口 |--③-|
口口②口 |----|
50
①②③口 |①-②-|
⑦口口⑧ |③-④-|
口口口口 |⑤-⑥-|
口⑥⑤④ |⑦-⑧-|
51
①②③口 |①-②-|
⑦口口⑧ |③-④-|
口口口口 |⑤-⑥-|
口⑥⑤④ |⑦-⑧-|
52
①②③口 |①-②-|
⑦口口⑧ |③-④-|
口口口口 |⑤-⑥-|
口⑥⑤④ |⑦-⑧-|
53
①②③口 |①-②-|
⑦口口⑧ |③-④-|
口口口口 |⑤-⑥-|
口⑥⑤④ |⑦-⑧-|
54
①②③口 |①-②-|
⑦口口⑧ |③-④-|
口口口口 |⑤-⑥-|
口⑥⑤④ |⑦-⑧-|
55
①②③口 |①-②-|
⑦口口⑧ |③-④-|
口口口口 |⑤-⑥-|
口⑥⑤④ |⑦-⑧-|
56
①②③口 |①-②-|
⑦口口⑧ |③-④-|
口口口口 |⑤-⑥-|
口⑥⑤④ |⑦-⑧-|
57
④⑥⑥④ |①---|
⑤②②⑤ |②---|
③①①③ |③-④-|
口口口口 |⑤-⑥-|
58
口口口口 |①---|
口③③口 |②---|
口②②口 |③---|
口①①口 |----|
59
①口口② |①-②-|
③口口④ |③-④-|
⑤口口⑥ |⑤-⑥-|
⑦口口⑧ |⑦-⑧-|
60
口①①口 |①---|
口②②口 |②---|
口③③口 |③---|
口④④口 |④---|
61
⑦⑥⑥⑧ |①-②-|
⑨⑤⑤⑩ |③-④-|
③口口④ |⑤-⑥-|
①口口② |⑦⑧⑨⑩|
62
口④④口 |①---|
口③③口 |②---|
口②②口 |③---|
口①①口 |④---|
63
⑦口口⑧ |①-②-|
⑤口口⑥ |③-④-|
③口口④ |⑤-⑥-|
①口口② |⑦-⑧-|
64
⑥口口⑤ |①---|
口①①口 |②-③-|
②口口③ |④---|
口④④口 |⑤-⑥-|
65
口口口口 |①---|
口①①口 |②-③-|
口④④口 |④---|
②口口③ |----|
66
⑨⑤口口 |①-②③|
①口③② |④-⑤-|
口口⑦⑥ |-⑥⑦-|
⑧④口口 |⑧-⑨-|
67
⑨⑤口口 |①-②③|
①口③② |④-⑤-|
口口⑦⑥ |-⑥⑦-|
⑧④口口 |⑧-⑨-|
68
⑨⑤口口 |①-②③|
①口③② |④-⑤-|
口口⑦⑥ |-⑥⑦-|
⑧④口口 |⑧-⑨-|
69
⑨⑤口口 |①-②③|
①口③② |④-⑤-|
口口⑦⑥ |-⑥⑦-|
⑧④口口 |⑧-⑨-|
70
⑨⑤口口 |①-②③|
①口③② |④-⑤-|
口口⑦⑥ |-⑥⑦-|
⑧④口口 |⑧-⑨-|
71
⑨⑤口口 |①-②③|
①口③② |④-⑤-|
口口⑦⑥ |-⑥⑦-|
⑧④口口 |⑧-⑨-|
72
⑨⑤口口 |①-②③|
①口③② |④-⑤-|
口口⑦⑥ |-⑥⑦-|
⑧④口口 |⑧-⑨-|
73
口⑤③口 |①-②-|
①口口口 |③-④-|
口⑥⑥口 |⑤---|
口④②口 |⑥---|
74
⑨⑤口口 |①-②③|
①口③② |④-⑤-|
口口⑦⑥ |-⑥⑦-|
⑧④口口 |⑧-⑨-|
75
⑨⑤口口 |①-②③|
①口③② |④-⑤-|
口口⑦⑥ |-⑥⑦-|
⑧④口口 |⑧-⑨-|
76
⑨⑤口口 |①-②③|
①口③② |④-⑤-|
口口⑦⑥ |-⑥⑦-|
⑧④口口 |⑧-⑨-|
77
口⑤⑥口 |①-②③|
①口③② |④-⑤-|
口⑦⑧口 |⑥---|
⑨④口⑩ |⑦⑧⑨⑩|
78
口口口口 |----|
①②口③ |①②③-|
④⑤口⑥ |④⑤⑥-|
⑦⑧口⑨ |⑦⑧⑨-|
79
③口②① |①②③-|
⑥口⑤④ |④⑤⑥-|
⑨口⑧⑦ |⑦⑧⑨-|
⑫口⑪⑩ |⑩⑪⑫-|
80
①②口③ |①②③-|
④⑤口⑥ |④⑤⑥-|
⑦⑧口⑨ |⑦⑧⑨-|
⑩⑪口⑫ |⑩⑪⑫-|
81
④①①③ |①---|
口②②口 |②---|
⑧⑥⑤⑦ |③④⑤⑥|
⑩口口⑨ |⑦⑧⑨⑩|
82
⑨⑤口口 |①-②③|
①口③② |④-⑤-|
口口⑦⑥ |-⑥⑦-|
⑧④口口 |⑧-⑨-|
83
⑨⑤口口 |①-②③|
①口③② |④-⑤-|
口口⑦⑥ |-⑥⑦-|
⑧④口口 |⑧-⑨-|
84
⑨⑤口口 |①-②③|
①口③② |④-⑤-|
口口⑦⑥ |-⑥⑦-|
⑧④口口 |⑧-⑨-|
85
口口④② |①②③④|
⑧⑥口⑨ |⑤⑥⑦⑧|
⑦⑤口⑨ |⑨---|
口口③① |----|
86
口口口口 |①---|
②③①④ |②③④-|
⑤⑥①⑦ |⑤⑥⑦-|
⑧⑨口⑩ |⑧⑨⑩-|
87
③口②① |①②③-|
⑥口⑤④ |④⑤⑥-|
⑨口⑧⑦ |⑦⑧⑨-|
⑫口⑪⑩ |⑩⑪⑫-|
88
①②③④ |①-②-|
⑧⑦⑥⑤ |③-④-|
口口口口 |⑤-⑥-|
口口口口 |⑦-⑧-|
89
⑧⑦⑥⑤ |①②③④|
⑯⑮⑭⑬ |⑤⑥⑦⑧|
⑨⑩⑪⑫ |⑨⑩⑪⑫|
①②③④ |⑬⑭⑮⑯|
90
口口口口 |①---|
口口口口 |----|
口口口口 |----|
口①①口 |----|


不确定度: 0

最終更新:2012年11月10日 15:15