制作現場での出来事
猫大樹

BASIC

Level: 3
BPM: 150
Notes: 240

1
口口口口 |----|
口口口口 |----|
口口口口 |----|
口口口口 |----|
2
口口口口 |①---|
口口口口 |----|
口①①口 |----|
口口口口 |----|
3
口口口口 |①---|
口口口口 |----|
口①①口 |----|
口口口口 |----|
4
口口口口 |①---|
口口口口 |----|
口①①口 |----|
口口口口 |----|
5
口口口口 |①---|
口口口口 |----|
口①①口 |----|
口口口口 |----|
6
口口口口 |①---|
口口口口 |----|
口口口口 |②---|
口①②口 |----|
7
口口口口 |①---|
口口口口 |----|
口②②口 |②---|
口①口口 |----|
8
口口口口 |①---|
口口口口 |----|
口口口口 |②---|
口②①口 |----|
9
口口口口 |①---|
口口口口 |----|
口②②口 |②---|
口口①口 |----|
10
口口口口 |①---|
口口口口 |----|
口口口口 |②---|
口①②口 |----|
11
口口口口 |①---|
口口口口 |----|
口②②口 |②---|
口①口口 |----|
12
口口口口 |①---|
口口口口 |----|
口口口口 |②---|
口②①口 |----|
13
口口口口 |①---|
口口口口 |----|
①口口① |----|
口口口口 |----|
14
口口口口 |①---|
口口口口 |----|
①②口口 |②---|
口口口口 |----|
15
口口口口 |①---|
口②②口 |----|
口口①口 |②---|
口口口口 |----|
16
口口口口 |①---|
口口口口 |----|
口口②① |②---|
口口口口 |----|
17
口口口口 |①---|
口②②口 |----|
口①口口 |②---|
口口口口 |----|
18
口口口口 |①---|
②口口口 |----|
①口口口 |②---|
口口口口 |----|
19
口口口口 |①---|
口②②口 |----|
①口口口 |②---|
口口口口 |----|
20
口口口口 |①---|
口口口② |----|
口口口① |②---|
口口口口 |----|
21
口口口口 |①---|
口口口口 |----|
口口口① |----|
口口口口 |----|
22
口口口口 |①---|
口口口口 |②---|
①②③口 |③---|
口口口口 |----|
23
口口口口 |①---|
口③②① |②---|
口口口口 |③---|
口口口口 |----|
24
口①①口 |①---|
口口口口 |----|
口口口口 |----|
口口口口 |----|
25
口口口口 |①---|
口①①口 |----|
口口口口 |----|
口口口口 |----|
26
口口口口 |①---|
口口口口 |②---|
口③②① |③---|
口口口口 |----|
27
口口口口 |①---|
①②③口 |②---|
口口口口 |③---|
口口口口 |----|
28
口①①口 |①---|
口口口口 |----|
口口口口 |----|
口口口口 |----|
29
口口口口 |①---|
口①①口 |----|
口口口口 |----|
口口口口 |----|
30
口口口口 |①---|
口②②口 |----|
口口①口 |②---|
口口口口 |----|
31
口口口口 |①---|
口②②口 |----|
口①口口 |②---|
口口口口 |----|
32
口口口口 |①---|
口②②口 |----|
口口①口 |②---|
口口口口 |----|
33
口口口口 |①---|
口②②口 |----|
口①口口 |②---|
口口口口 |----|
34
口口口口 |①---|
口②②口 |----|
口①①口 |②---|
口口口口 |----|
35
口口口口 |①---|
口②②口 |----|
口①①口 |②---|
口口口口 |----|
36
口口口口 |①---|
口②②口 |----|
口①①口 |②---|
口口口口 |----|
37
口口口口 |①---|
②口口② |----|
口①①口 |②---|
口口口口 |----|
38
口口口口 |①---|
口④②口 |②---|
口③①口 |③---|
口口口口 |④---|
39
口口口口 |①---|
口③④口 |②---|
口②①口 |③---|
口口口口 |④---|
40
①口口① |①---|
口口口口 |----|
口口口口 |----|
口口口口 |----|
41
口口口口 |①---|
口①①口 |----|
口口口口 |----|
口口口口 |----|
42
口口口口 |①---|
口②④口 |②---|
口①③口 |③---|
口口口口 |④---|
43
口口口口 |①---|
口④③口 |②---|
口①②口 |③---|
口口口口 |④---|
44
①口口① |①---|
口口口口 |----|
口口口口 |----|
口口口口 |----|
45
口口口口 |①---|
口①①口 |----|
口口口口 |----|
口口口口 |----|
46
①口口口 |①---|
②口口口 |②---|
口③口口 |③---|
口口口口 |----|
47
口口口① |①---|
口口口② |②---|
口口③口 |③---|
口口口口 |----|
48
①口口口 |①---|
②口口口 |②---|
口③口口 |③---|
口口口口 |----|
49
口口口① |①---|
口口口② |②---|
口口③口 |③---|
口口口口 |----|
50
①口口口 |①---|
口②口口 |②---|
口口③口 |③---|
口口口口 |----|
51
口口口① |①---|
口口②口 |②---|
口③口口 |③---|
口口口口 |----|
52
①口口口 |①---|
口②口口 |②---|
口口③口 |③---|
口口口口 |----|
53
口口口口 |①---|
①口口① |----|
②口口② |②---|
口口口口 |----|
54
口④口口 |①---|
口③口口 |②---|
口②口口 |③---|
口①口口 |④---|
55
口口④口 |①---|
口口③口 |②---|
口口②口 |③---|
口口①口 |④---|
56
④口口口 |①---|
③口口口 |②---|
②口口口 |③---|
①口口口 |④---|
57
口口口④ |①---|
口口口③ |②---|
口口口② |③---|
口口口① |④---|
58
口④口口 |①---|
口③口口 |②---|
口②口口 |③---|
口①口口 |④---|
59
口口④口 |①---|
口口③口 |②---|
口口②口 |③---|
口口①口 |④---|
60
④口口口 |①---|
③口口口 |②---|
②口口口 |③---|
①口口口 |④---|
61
口口口④ |①---|
口口口③ |②---|
口口口② |③---|
口口口① |④---|
62
口口口口 |①---|
②①①② |②---|
④③③④ |③---|
口口口口 |④---|
63
④口口④ |①---|
口③③口 |②---|
口②②口 |③---|
①口口① |④---|
64
口口口口 |①---|
①②②① |②---|
③④④③ |③---|
口口口口 |④---|
65
口④④口 |①---|
③口口③ |②---|
②口口② |③---|
口①①口 |④---|
66
口口口口 |①---|
②①①② |②---|
④③③④ |③---|
口口口口 |④---|
67
④口口④ |①---|
口③③口 |②---|
口②②口 |③---|
①口口① |④---|
68
口口口口 |①---|
①②②① |②---|
③④④③ |③---|
口口口口 |④---|
69
④④④④ |①---|
③口口③ |②---|
②口口② |③---|
口①①口 |④---|

不確定度: 0

最終更新:2016年09月21日 01:06