夏休み is freedom!!
猫大樹

BASIC

Level: 3
BPM: 155
Notes: 168

1
口口口口 |----|
口口口口 |----|
口口口口 |----|
口口口口 |----|
2
口口口口 |----|
口口口口 |----|
口口口口 |----|
口口口口 |----|
3
口口口口 |①---|
口口口口 |----|
口口口口 |----|
口口①口 |----|
4
口口口口 |①---|
口口口口 |----|
口口口口 |----|
口①口口 |----|
5
口口口口 |①---|
口口口口 |----|
口①口口 |----|
口口口口 |----|
6
口口口口 |①---|
口口口口 |----|
口口①口 |----|
口口口口 |----|
7
口口口口 |①---|
口口①口 |----|
口口口口 |----|
口口口口 |----|
8
口口口口 |①---|
口①口口 |----|
口口口口 |----|
口口口口 |----|
9
口①口口 |①---|
口口口口 |----|
口口口口 |----|
口口口口 |----|
10
口口①口 |①---|
口口口口 |----|
口口口口 |----|
口口口口 |----|
11
口口口口 |①---|
口①①口 |----|
口口口口 |----|
口口口口 |----|
12
口口口口 |①---|
口口口① |----|
口口口② |②---|
口口口口 |----|
13
口口口口 |①---|
口口①口 |----|
口口②口 |②---|
口口口口 |----|
14
口口口口 |①---|
口①口口 |----|
口②口口 |②---|
口口口口 |----|
15
口口口口 |①---|
口①①口 |----|
口②②口 |②---|
口口口口 |----|
16
口口口口 |①---|
①口口口 |----|
②口口口 |②---|
口口口口 |----|
17
口口口口 |①---|
口①口口 |----|
口②口口 |②---|
口口口口 |----|
18
口口口口 |①---|
口口①口 |----|
口口②口 |②---|
口口口口 |----|
19
口口口口 |①---|
②①①② |----|
口口口口 |②---|
口口口口 |----|
20
口口口口 |①---|
口口口口 |----|
口①口口 |----|
口口口口 |----|
21
口口口口 |①---|
口①口口 |----|
口口口口 |----|
口口口口 |----|
22
口①①口 |①---|
口口口口 |----|
口口口口 |----|
口口口口 |----|
23
口口口口 |①---|
口①①口 |----|
口口口口 |----|
口口口口 |----|
24
口口口口 |①---|
口口口口 |----|
口口①口 |----|
口口口口 |----|
25
口口口口 |①---|
口口①口 |----|
口口口口 |----|
口口口口 |----|
26
口①①口 |①---|
口口口口 |----|
口口口口 |----|
口口口口 |----|
27
口口口口 |①---|
口①①口 |----|
口口口口 |----|
口口口口 |----|
28
口口口口 |①---|
口口口口 |----|
口①口口 |----|
口口口口 |----|
29
口口口口 |①---|
口口①口 |----|
口口口口 |----|
口口口口 |----|
30
口①①口 |①---|
口口口口 |----|
口口口口 |----|
口口口口 |----|
31
口口口口 |①---|
口①①口 |----|
口口口口 |----|
口口口口 |----|
32
口口口口 |①---|
口口口口 |----|
口口①口 |----|
口口口口 |----|
33
口口口口 |①---|
口①口口 |----|
口口口口 |----|
口口口口 |----|
34
口①①口 |①---|
口口口口 |----|
口口口口 |----|
口口口口 |----|
35
口口口口 |①---|
口①①口 |----|
口口口口 |----|
口口口口 |----|
36
①②口口 |①---|
口口口口 |----|
口口口口 |②---|
口口口口 |----|
37
口口①口 |①---|
口②②口 |----|
口口口口 |②---|
口口口口 |----|
38
口口口口 |①---|
口②口口 |----|
口①口口 |②---|
口口口口 |----|
39
口①口口 |①---|
口②②口 |----|
口口口口 |②---|
口口口口 |----|
40
口口②① |①---|
口口口口 |----|
口口口口 |②---|
口口口口 |----|
41
口①口口 |①---|
口②②口 |----|
口口口口 |②---|
口口口口 |----|
42
口口口口 |①---|
口口②口 |----|
口口①口 |②---|
口口口口 |----|
43
口口①口 |①---|
口②②口 |----|
口口口口 |②---|
口口口口 |----|
44
①①①① |①---|
口口口口 |----|
口口口口 |----|
口口口口 |----|
45
口口口口 |①---|
①②③④ |②---|
口口口口 |③---|
口口口口 |④---|
46
口口口口 |①---|
口口口口 |②---|
④③②① |③---|
口口口口 |④---|
47
口口口口 |①---|
②①①② |----|
口口口口 |②---|
口口口口 |----|
48
口口口口 |①---|
口口口口 |----|
①②②① |②---|
口口口口 |----|
49
口口口口 |①---|
④③②① |②---|
口口口口 |③---|
口口口口 |④---|
50
口口口口 |①---|
口口口口 |②---|
①②③④ |③---|
口口口口 |④---|
51
口口口口 |①---|
②①①② |----|
口口口口 |②---|
口口口口 |----|
52
①①①① |①---|
口口口口 |----|
口口口口 |----|
口口口口 |----|
53
口②②口 |①---|
口口口① |----|
口口口口 |②---|
口口口口 |----|
54
口②②口 |①---|
①口口口 |----|
口口口口 |②---|
口口口口 |----|
55
口口口口 |①---|
②①①② |----|
口口口口 |②---|
口口口口 |----|
56
口口口口 |①---|
口口口口 |----|
口①①口 |----|
口口口口 |----|
57
口②②口 |①---|
①口口口 |----|
口口口口 |②---|
口口口口 |----|
58
口②②口 |①---|
口口口① |----|
口口口口 |②---|
口口口口 |----|
59
口口口口 |①---|
①口口① |----|
口口口口 |----|
口口口口 |----|
60
口①①口 |①---|
口①①口 |----|
口口口口 |----|
口口口口 |----|
61
①②③④ |①---|
口口口口 |②---|
口口口口 |③---|
口口口口 |④---|
62
口口口口 |①---|
口口口① |②---|
口口口② |③---|
口口④③ |④---|
63
口口口口 |①---|
④口口口 |②---|
③口口口 |③---|
②①口口 |④---|
64
①口口口 |①---|
②口口② |----|
口口口口 |②---|
口口口口 |----|
65
④③②① |①---|
口口口口 |②---|
口口口口 |③---|
口口口口 |④---|
66
口口口口 |①---|
①口口口 |②---|
②口口口 |③---|
③④口口 |④---|
67
口口口口 |①---|
口口口④ |②---|
口口口③ |③---|
口口①② |④---|
68
口口口① |①---|
②③③② |----|
口③③口 |②---|
口口口口 |③---|

不確定度: 0

最終更新:2016年09月21日 01:05