夏休み is freedom!!
猫大樹

ADVANCED

Level: 6
BPM: 155
Notes: 402

1
口口口口 |----|
口口口口 |----|
口口口口 |----|
口口口口 |----|
2
口口口口 |----|
口口口口 |----|
口①口② |①-②-|
口③口④ |③-④-|
3
②口口② |①---|
口①①口 |②---|
④口③口 |③-④-|
⑥口⑤口 |⑤-⑥-|
4
②口口② |①---|
口①①口 |②---|
口口口口
口口口口

口口⑤口
口⑥口④
口口③口 |③-④-|
口口口口 |⑤-⑥-|
5
②③口② |①---|
口口③口 |----|
①口口口 |②---|
口口口口 |③---|
6
口口口口 |①---|
口口口口 |----|
口①口口
口口①口

口口口口
口口口口
③口②口 |②-③-|
⑤口④口 |④-⑤-|
7
②口口② |①---|
口①①口 |②---|
口③口④ |③-④-|
口⑤口⑥ |⑤-⑥-|
8
②口口② |①---|
口①①口 |②---|
口口口口
口口口口

口⑤口口
④口⑥口
口③口口 |③-④-|
口口口口 |⑤-⑥-|
9
②口口② |①---|
③口口③ |----|
口口口① |②---|
口口口口 |③---|
10
口①①口 |①---|
口①①口 |----|
口口口口 |----|
口口口口 |----|
11
①①①① |----|
口口口口 |----|
口口口口 |----|
口口口口 |①---|
12
口口口口 |①---|
②②口口 |--②-|
口口口口
口口①①

口口口口
口口口口
口口口③ |----|
口口口③ |③---|
13
口口口口 |①---|
口口②② |--②-|
口口口口
①①口口

口口口口
口口口口
③口口口 |----|
③口口口 |③---|
14
口口口口 |①---|
②②口口 |--②-|
口口口口
口口①①

口口口口
口口口口
口口口③ |----|
口口口③ |③---|
15
口口口口 |①---|
口口②② |--②-|
口口口口
①①口口

口口口口
口口口口
③口口口 |----|
③口口口 |③---|
16
口口口口 |①---|
②②口口 |--②-|
口口口①
口口①口

口口口口
口口口口
口口口③ |----|
口口口③ |③---|
17
口口口口 |①---|
口口②② |--②-|
①口口口
口①口口

口口口口
口口口口
③口口口 |----|
③口口口 |③---|
18
口口口口 |①---|
②②口口 |--②-|
口口口①
口口①口

口口口口
口口口口
口口口③ |----|
口口口③ |③---|
19
口口口口 |①---|
口口口口 |----|
①口口口
口①口口

口口口口
口口口口
⑤④③② |②-③-|
口口口口 |④-⑤-|
20
口口口口 |①---|
口①①口 |----|
口口口口
口口口口

口口口口
②②口口
口口口口 |----|
口口口口 |②---|
21
口口口② |①---|
口口口口 |②---|
口①①口
口口口口

③口口口
口口口口
口④④口 |③---|
口口口口 |④---|
22
口①①口 |①---|
口口口口 |----|
口口口口 |----|
口口口② |②---|
23
口②②口 |①---|
口口口口 |--②-|
③④⑤⑥ |③-④-|
①口口口 |⑤-⑥-|
24
口口口口 |①---|
口①①口 |----|
口口口口
口口口口

口口口口
口口②②
口口口口 |----|
口口口口 |②---|
25
②口口口 |①---|
口口口口 |②---|
口①①口
口口口口

口口口③
口口口口
口④④口 |③---|
口口口口 |④---|
26
②①①口 |①---|
口口口口 |----|
口口口口 |----|
口口口口 |②---|
27
口口口① |①---|
口口口口 |--②-|
③④⑤⑥ |③-④-|
口②②口 |⑤-⑥-|
28
口口口口 |①---|
口①①口 |----|
口口口口
口口口口

口口口口
口②口口
②口口口 |----|
口口口口 |②---|
29
口口口② |①---|
口口口② |②---|
口口①口
口①口口

③口口口
③口口口
口④④口 |③---|
口口口口 |④---|
30
口①①口 |①---|
口口口口 |----|
②口口② |----|
口口口口 |②---|
31
口②②口 |①---|
口口口口 |--②-|
⑥⑤④③ |③-④-|
①口口① |⑤-⑥-|
32
口口口口 |①---|
口①①口 |----|
口口口口
口口口口

口口口口
口口②口
口口口② |----|
口口口口 |②---|
33
②口口口 |①---|
②口口口 |②---|
口①口口
口口①口

口口口③
口口口③
口④④口 |③---|
口口口口 |④---|
34
口①①口 |①---|
②口口② |----|
口口口口 |----|
口口口口 |②---|
35
①口口① |①---|
口口口口 |--②-|
口口口口 |----|
口②②口 |----|
36
②口口口 |①---|
⑤④③口 |②---|
①口口口 |③-④-|
口口口口 |⑤---|
37
口口口② |①---|
口③④⑤ |②---|
口口口① |③-④-|
口口口口 |⑤---|
38
②口口口 |①---|
⑤④③口 |②---|
①口口口 |③-④-|
口口口口 |⑤---|
39
④口口④ |①---|
口③③口 |②---|
①口口① |③---|
口②②口 |④---|
40
口②口口 |①---|
口⑤④③ |②---|
口①口口 |③-④-|
口口口口 |⑤---|
41
口口②口 |①---|
③④⑤口 |②---|
口口①口 |③-④-|
口口口口 |⑤---|
42
口②口口 |①---|
口⑤④③ |②---|
口①口口 |③-④-|
口口口口 |⑤---|
43
④口口④ |①---|
口③③口 |②---|
口①①口 |③---|
②口口② |④---|
44
口口口口 |①---|
口口口口 |----|
④①①⑤ |②-③-|
②①①③ |④-⑤-|
45
口口②口 |①---|
①①口② |②---|
⑥口口⑤ |③-④-|
④口口③ |⑤-⑥-|
46
⑤②口④ |①---|
②口①① |②---|
⑥口口③ |③-④-|
口口口口 |⑤-⑥-|
47
口②③口 |①---|
口③②口 |----|
口口口口 |②---|
口①①口 |③---|
48
口口口口 |①---|
口口口口 |----|
①①①①
口口口口

口口口口
口口口口
⑤口口④ |②-③-|
③口口② |④-⑤-|
49
口②口口 |①---|
②口①① |②---|
⑤口口⑥ |③-④-|
③口口④ |⑤-⑥-|
50
④口②⑤ |①---|
①①口② |②---|
③口口⑥ |③-④-|
口口口口 |⑤-⑥-|
51
口口口口 |①---|
口③②口 |----|
口②③口 |②---|
口①①口 |③---|
52
①①①① |①---|
口口口口 |----|
口口口口 |----|
口口口口 |----|
53
口口口② |①---|
口口口② |--②-|
口口口口 |----|
口①①口 |----|
54
②口口口 |①---|
②④⑤口 |--②-|
口口③口 |--③-|
口①①口 |④-⑤-|
55
②口口② |①---|
口口口口 |----|
口①口口 |--②-|
口口口口 |----|
56
口口口口 |①---|
口口口口 |----|
口口口口 |----|
①口口① |----|
57
②②口口 |①---|
口口口口 |--②-|
口口①口 |----|
口①口口 |----|
58
口口②② |①---|
口口口口 |--②-|
口①口口
口口①口

口口口口
③⑤④口
③⑤④口 |--③-|
口口口口 |④-⑤-|
59
口口口口 |①---|
口口口① |----|
口口口① |--②-|
②②②② |----|
60
①①①① |①---|
口口口口 |----|
②口口② |②---|
口口口口 |----|
61
④口口④ |①---|
口②②口 |②---|
口口口口 |③---|
①③③口 |④---|
62
④口口④ |①---|
口②②口 |②---|
口口口口 |③---|
口③③① |④---|
63
④口口④ |①---|
口口口② |②---|
口口口② |③---|
①③③口 |④---|
64
④口口④ |①---|
②口口口 |②---|
②口口口 |③---|
口③③① |④---|
65
④口口④ |①---|
②②口口 |②---|
口口口口 |③---|
①③③口 |④---|
66
④口口④ |①---|
口口②② |②---|
口口口口 |③---|
口③③① |④---|
67
④口口④ |①---|
口口②口 |②---|
口口口② |③---|
①③③口 |④---|
68
④④④④ |①---|
口②口口 |②---|
②口口口 |③---|
口③③① |④---|

不確定度: 0

最終更新:2016年09月21日 01:04