世界五分前仮説
有形ランペイジ

ADVANCED

Level: 7
BPM: 140-195
Notes: 393

BPM: 140
1
口口口口 |----|
口口口口 |----|
口口口口 |----|
口口口口 |----|
2
口口口口 |①---|
①口口① |----|
①口口① |--|
口口口口 |----|
3
口口口口 |①---|
①口口① |--|
①口口①
口口口口
4
口口口口 |①---|
口①①口 |----|
口①①口 |--|
口口口口
5
口口口口 |①---|
①口口① |----|
①口口①
口口口口
6
④口口① |①--②|
口③②口 |--③-|
口②③口 |--④-|
①口口④ |----|
7
口①④口 |①--②|
②口口③ |--③-|
③口口② |--④-|
口④①口 |----|
8
口口口口 |①---|
①口口① |----|
①口口① |--|
口口口口
9
口口口口 |①---|
①口口① |--|
①口口①
口口口口
10
口口口口 |①---|
口①①口 |----|
口①①口 |--|
口口口口
11
口口口口 |①---|
①口口① |----|
①口口①
口口口口
12
④口口① |①--②|
口③②口 |--③-|
口②③口 |--④-|
①口口④ |----|
13
口④①口 |①--②|
③口口② |--③-|
②口口③ |--④-|
口①④口 |----|
14
口⑤口② |①-②-|
口口口口 |-③--|
口④口③ |④--⑤|
①口口口

口口口⑥ |--⑥-|
口口口口 |--⑦-|
口口口⑦
口口口口
15
口口口口 |--①-|
①口④口 |-②--|
口口口口 |③--④|
②口③口

口口口口 |--⑤-|
⑤口口口 |--⑥-|
口口口口
⑥口口口
16
口口口口 |--①-|
口④口① |-②--|
口口口口 |③--④|
口③口②

口口口口 |--⑤-|
口口口⑤ |--⑥-|
口口口口
口口口⑥
17
①③③① |①--②|
⑤口口⑤ |--③-|
口⑥⑥口 |-④--|
④②②④ |⑤-⑥-|
18
口③口② |①-②-|
口口口口 |-③--|
口④口⑤ |④--⑤|
口①口口

口⑦口⑥ |--⑥-|
口口口口 |--⑦-|
口口口口
口口口口
19
口口口口 |--①-|
①口②口 |-②--|
口口口口 |③--④|
④口③口

口口口口 |--⑤-|
⑤口⑥口 |-⑥--|
口口口口
口口口口
20
口①口④ |--①-|
口口口口 |-②--|
口②口③ |③--④|
口口口口

口⑤口口 |--⑤-|
口口口口 |--⑥-|
口⑥口口
口口口口
21
③⑤⑤③ |①--②|
口①①口 |--③-|
⑥口口⑥ |-④--|
②④④② |⑤-⑥-|
22
口口口② |①-②-|
口①口口 |③④--|
口③④口
口口口口

口口⑤口
口⑥⑦口
口口口口 |⑤-⑥⑦|
口口口口

⑨口口口 |⑧-⑨-|
口口口⑩ |⑩-⑪-|
口口口口
⑧口⑪口
23
⑤②口口 |①-②-|
口⑦⑥口 |③④--|
口④③口 |⑤-⑥⑦|
口口口①

口口口⑨ |⑧-⑨-|
⑩口口口 |⑩-⑪-|
口口口口
口口⑪⑧
24
口口②口 |①-②-|
口⑥⑦口 |③④--|
口③④口 |⑤-⑥⑦|
①口口⑤

⑨口口口 |⑧-⑨-|
口口口⑩ |⑩-⑪-|
口口口口
⑧⑪口口
25
口①①口 |①--②|
口③③口 |--③-|
口口口口
②口口②

口⑤⑤口
口口口口
口④④口 |-④--|
口⑥⑥口 |⑤-⑥-|
26
口口口② |①-②-|
口①口口 |③④--|
口③④口
口口口口

口口⑤口
口⑥⑦口
口口口口 |⑤-⑥⑦|
口口口口

⑨口口口 |⑧-⑨-|
口口口⑩ |⑩-⑪-|
口口口口
⑧口⑪口
27
⑤②口口 |①-②-|
口⑦⑥口 |③④--|
口④③口 |⑤-⑥⑦|
口口口①

口口口⑨ |⑧-⑨-|
⑩口口口 |⑩-⑪-|
口口口口
口口⑪⑧
28
口口②口 |①-②-|
口⑥⑦口 |③④--|
口③④口 |⑤-⑥⑦|
①口口⑤

⑨口口口 |⑧-⑨-|
口口口⑩ |⑩-⑪-|
口口口口
⑧⑪口口
29
口①①口 |①--②|
口③③口 |--③-|
口口口口
②口口②

⑤口口⑤
口口口口
口④④口 |-④--|
⑥口口⑥ |⑤--⑥|
30
口口口口 |----|
②口口口 |----|
口口口口 |①---|
口①口口 |②---|
31
|①---|
口口口口 |----|
口口口口
口口口口

口口口
口③口口
口口口口 |----|
口口口口 |②-③-|

BPM在140附近飄忽不定
32
口⑥口口 |①--②|
口口口⑤ |--③-|
②④口口 |④--⑤|
口口①③ |--⑥-|
33
口口口 |①---|
口口口 |----|
口口
口口

口口口口
③口口口
口口口口 |----|
口口口 |②-③-|
34
⑥口口② |①--②|
口④⑤口 |--③-|
口⑤④口 |④--⑤|
③①口⑥ |-⑥--|
35
口口口 |①---|
口口口 |----|
口口
口口

口口口口
口③口口
口口口口 |----|
口口口 |②-③-|
36
口口口口 |①---|
口口口口 |----|

口口口口

口口口口

口口口 |②---|
口口口口 |----|
37
口口口 |①---|
口口 |----|
口口口 |----|
口口口 |----|
38
口口口口 |①---|
口口口口 |②---|
口③③口 |③---|
①②②
39
|①---|
口口口口 |----|
口口口口 |----|
口口口口 |----|
40
口口① |①---|
口②②口 |②---|
口③③口 |③---|
口口口口
41
口口口口 |①---|
口口口口 |----|
口口口口 |----|
|----|
42
口口口口 |①---|
口③③口 |②---|
口②②口 |③---|
①口口
43
|①---|
口口口口 |----|
口口口口 |----|
口口口口 |----|
44
口口① |①---|
口口②口 |②---|
口③口口 |③---|
④口口口 |④---|
45
①口口口 |①---|
口②口口 |②---|
口口③口 |③---|
口口口④ |④---|
46
口口口口 |----|
口口口口 |----|
口口口口 |----|
口口口口 |----|

BPM在125附近飄忽不定
47
口口口口 |①---|
口口口口 |----|
②口口口 |②---|
口①口口 |----|
48
②口口口 |①---|
①口口口 |----|
口口口口 |②---|
口口口口 |----|
49
口口口① |①---|
口口②口 |----|
口口口口 |②---|
口口口口 |----|
50
④口口口 |①---|
③口口口 |②---|
②口口口 |③---|
①口口口 |④---|

BPM在195附近飄忽不定
51
口口口口 |①---|
口口①口 |----|
口口口口 |----|
口口口口
52
口口口口 |①---|
口口口口 |----|
口①口口 |----|
口口口口
53
口口口口 |①---|
口口口口 |----|
口口口口 |----|
口口①口
54
口口口口 |①---|
口口口口 |----|
口口口口 |----|
口口口①
55
口口口口 |①---|
口口口口 |----|
口口①口 |----|
口口口口

BPM在140附近飄忽不定
56
口口口口 |①---|
口口口口 |----|
口口口口
口①口口
57
④④④④ |①---|
③口口③ |②---|
②口口② |③---|
①口口① |④---|
58
口口口口 |①---|
口①⑥⑤ |②---|
口口③口 |③---|
④口②口 |④-⑤⑥|
59
③口②口 |①--②|
口①口口 |--③-|
⑥⑦口口 |④---|
口④口⑤ |⑤-⑥⑦|
60
口⑤⑤③ |①--②|
②④口口 |--③-|
口口①口 |④---|
口口口口 |⑤---|
61
②口口② |①---|
口③①口 |②---|
口①③口 |③---|
④口口④ |④---|
62
口口③③ |①---|
⑤⑥①① |②---|
①①口口 |③---|
口②口④ |④-⑤⑥|
63
②口口口 |①--②|
⑥⑦①口 |--③-|
口口口③ |④---|
口④口⑤ |⑤-⑥⑦|
64
口口口③ |①--②|
口口①口 |--③-|
口⑤⑤口 |④---|
②④④口 |⑤---|
65
|①---|
口口②口 |②---|
口口口③ |③---|
口口④口 |④---|
66
口口口口 |①---|
口口④③ |②---|
口口②口 |③---|
口口口① |④---|
67
口口口 |①---|
口口口口 |----|
口口口① |②---|
②口口口 |----|
68
口④④口 |①---|
口③③口 |②---|
口②②口 |③---|
口①①口 |④---|
69
①口口① |①---|
口②口口 |----|
口口③口 |②---|
口口口口 |③---|
70
④口口口 |①---|
③口口口 |②---|
②口口口 |③---|
①口口口 |④---|
71
口①②③ |①---|
口口口④ |②---|
口口口口 |③---|
口口口口 |④---|
72
口口口口 |①---|
口口口口 |②---|
口口口① |③---|
口④③② |④---|
73
口口口口 |①---|
口①①口 |----|
口①①口 |----|
口口口口 |----|

不確定度: 0

最終更新:2016年09月10日 02:51