New York EVOLVED
NC underground

BASIC

Level: 5
BPM: 190
Notes: 373

1
口口口口 |----|
口口口口 |----|
口口口口 |----|
口口口口 |----|
2
口口口口 |①---|
口口口口 |----|
口①①口 |----|
口口口口 |----|
3
口口口④ |①---|
口口口③ |②---|
口口口② |③---|
口口口① |④---|
4
口口口口 |①---|
口①①口 |----|
口口口口 |----|
口口口口 |----|
5
①口口口 |①---|
②口口口 |②---|
③口口口 |③---|
④口口口 |④---|
6
口口口口 |①---|
口口口口 |----|
口①①口 |----|
口口口口 |----|
7
口口口④ |①---|
口口口③ |②---|
口口口② |③---|
口口口① |④---|
8
口口口口 |①---|
口①①口 |----|
口口口口 |----|
口口口口 |----|
9
③口口③ |①---|
口②②口 |--②-|
①口口① |----|
口口口口 |③---|
10
口口口口 |--①-|
②口口② |----|
口①①口 |②---|
口口口口 |----|
11
口口口口 |--①-|
②口口② |----|
口①①口 |②---|
口口口口 |----|
12
口口口口 |①---|
口③③口 |--②-|
②口口② |----|
口①①口 |③---|
13
①口口① |--①-|
口③③口 |----|
口②②口 |②---|
口口口口 |③---|
14
口③③口 |①---|
①口口② |----|
口口口口 |②---|
口口口口 |③---|
15
口口口口 |①---|
①②③口 |②---|
口口口口 |③---|
口口口口 |----|
16
口口口口 |①---|
口口口口 |②---|
口③②① |③---|
口口口口 |----|
17
口口口口 |①---|
口口口口 |②---|
口口口口 |③---|
①②③口 |----|
18
口口口口 |①---|
口⑥⑤口 |②---|
②④③② |③-④-|
①口口① |⑤-⑥-|
19
①口口① |①---|
口口口口 |----|
口②②口 |②---|
口口口口 |----|
20
口口口口 |①---|
①②③口 |②---|
口口口口 |③---|
口口口口 |----|
21
口口口口 |①---|
口口口口 |②---|
口③②① |③---|
口口口口 |----|
22
②口口② |①---|
口①①口 |----|
口口口口 |②---|
口口口口 |----|
23
口口口口 |①---|
口②①口 |②---|
口④③口 |③---|
口口口口 |④---|
24
口口口口 |①---|
②口口① |②---|
④口口③ |③---|
口口口口 |④---|
25
口口口口 |①---|
口口口口 |②---|
口②①口 |③---|
口④③口 |④---|
26
④口口③ |①---|
②口口① |②---|
口口口口 |③---|
口口口口 |④---|
27
口口口口 |①---|
口②①口 |②---|
口④③口 |③---|
口口口口 |④---|
28
口口口口 |①---|
②口口① |②---|
④口口③ |③---|
口口口口 |④---|
29
口口口口 |①---|
口口口口 |②---|
口②①口 |③---|
口④③口 |④---|
30
④口口③ |①---|
②口口① |②---|
口口口口 |③---|
口口口口 |④---|
31
口口口口 |①---|
口①口口 |----|
口口口口 |----|
口口口口 |----|
32
口口口口 |①---|
口口口口 |----|
口口①口 |----|
口口口口 |----|
33
口口口口 |①---|
口口口口 |----|
口①口口 |----|
口口口口 |----|
34
口口口口 |①---|
口口①口 |----|
口口口口 |----|
口口口口 |----|
35
口口口口 |①---|
口①①口 |----|
口口口口 |----|
口口口口 |----|
36
口口口口 |①---|
口口口口 |----|
口①①口 |----|
口口口口 |----|
37
口口口口 |----|
口①①口 |①---|
口口口口 |----|
②口口② |②---|
38
口口口口 |①---|
①口口① |②---|
口②②口 |③---|
口③③口 |----|
39
①①①① |①---|
口口口口 |②---|
口②③④ |③---|
口口口口 |④---|
40
②口口② |①---|
③口口③ |②---|
④口口④ |③---|
口①①口 |④---|
41
口口口口 |①---|
口①①口 |②---|
④③②口 |③---|
口口口口 |④---|
42
④口口④ |①---|
口①②口 |②---|
口口口口 |③---|
口③③口 |--④-|
43
口口口口 |----|
口口口口 |①---|
口①②③ |②---|
口口口口 |③---|
44
②口口② |①---|
③口口③ |②---|
④口口④ |③---|
口①①口 |④---|
45
口口口口 |①---|
口①①口 |②---|
④③②口 |③---|
口口口口 |④---|
46
口口口① |①---|
口口口② |②---|
口口口③ |③---|
口口口④ |④---|
47
口口口口 |①---|
口①①口 |②---|
口②③④ |③---|
口口口口 |④---|
48
②口口② |①---|
③口口③ |②---|
④口口④ |③---|
口①①口 |④---|
49
口口口口 |①---|
口①①口 |②---|
④③②口 |③---|
口口口口 |④---|
50
④口口④ |①---|
口①②口 |②---|
口口口口 |③---|
口③③口 |--④-|
51
口口口口 |----|
口口口口 |①---|
口①②③ |②---|
口口口口 |③---|
52
②口口② |①---|
③口口③ |②---|
④口口④ |③---|
口①①口 |④---|
53
口口口口 |①---|
口①①口 |②---|
④③②口 |③---|
口口口口 |④---|
54
口口口① |①---|
口口口② |②---|
口口口③ |③---|
口口口④ |④---|
55
口口口口 |①---|
口①①口 |----|
口口口口 |----|
口口口口 |----|
56
口口口口 |----|
口口口口 |----|
口口口口 |----|
口口口口 |----|
57
口③②① |①---|
口口口口 |②---|
口口口口 |③---|
口口口口 |----|
58
口口口口 |①---|
①②③口 |②---|
口口口口 |③---|
口口口口 |----|
59
口口口口 |①---|
口口口口 |②---|
口③②① |③---|
口口口口 |----|
60
口口口口 |①---|
口④④口 |②---|
口口口口 |③---|
①②③口 |④---|
61
①②③口 |①---|
口口口口 |②---|
口口口口 |③---|
口口口口 |----|
62
口口口口 |①---|
口③②① |②---|
口口口口 |③---|
口口口口 |----|
63
口口口口 |①---|
口口口口 |②---|
①②③口 |③---|
口口口口 |----|
64
口④④口 |①---|
口口口口 |②---|
口口口口 |③---|
口③②① |④---|
65
口口口口 |①---|
②①口口 |②---|
③④口口 |③---|
口口口口 |④---|
66
口口口口 |①---|
口口①② |②---|
口口④③ |③---|
口口口口 |④---|
67
口①口口 |①---|
口口②口 |②---|
口③口口 |③---|
口口④口 |④---|
68
口口口口 |①---|
口口口口 |②---|
③口②③ |③---|
口①口口 |----|
69
口口口口 |①---|
口口①② |②---|
口口④③ |③---|
口口口口 |④---|
70
口口口口 |①---|
②①口口 |②---|
③④口口 |③---|
口口口口 |④---|
71
口口①口 |①---|
口②口口 |②---|
口口③口 |③---|
口④口口 |④---|
72
口④④口 |①---|
口口口口 |②---|
③②口③ |③--④|
口口①口 |----|
73
口口口口 |①---|
②①口口 |②---|
③④口口 |③---|
口口口口 |④---|
74
口口口口 |①---|
口口①② |②---|
口口④③ |③---|
口口口口 |④---|
75
口①口口 |①---|
口口②口 |②---|
口③口口 |③---|
口口④口 |④---|
76
④口口④ |①---|
口口口口 |②---|
③口②③ |③---|
口①口口 |④---|
77
口口口口 |①---|
口口①② |②---|
口口④③ |③---|
口口口口 |④---|
78
口口口口 |①---|
②①口口 |②---|
③④口口 |③---|
口口口口 |④---|
79
口口①口 |①---|
口②口口 |②---|
口口③口 |③---|
口④口口 |④---|
80
④口口④ |①---|
③口口③ |②---|
②口口② |③---|
①口口① |④---|
81
口口口口 |①---|
口口口口 |----|
口口②② |②---|
口口①① |----|
82
口口口口 |①---|
②②口口 |----|
①①口口 |②---|
口口口口 |----|
83
口口②② |①---|
口口①① |----|
口口口口 |②---|
口口口口 |----|
84
口口口口 |①---|
①④④① |②---|
②口口② |③---|
③口口③ |--④-|
85
①②②① |----|
口口口口 |①---|
口口口口 |②---|
口口口口 |----|
86
口口口口 |①---|
口①①口 |----|
口②②口 |②---|
口口口口 |----|
87
②②①① |①---|
④④③③ |②---|
口口口口 |③---|
口口口口 |④---|
88
口口口口 |①---|
口口口口 |②---|
②②①① |③---|
④④③③ |④---|
89
口口口口 |①---|
口①①口 |----|
口口口口 |----|
口口口口 |----|
90
口口口口 |----|
口口口口 |----|
口口口口 |----|
口口口口 |----|
91
①①①① |①---|
口口口口 |----|
口口口口 |----|
口口口口 |----|

不確定度: 0

最終更新:2016年09月08日 11:49