運命
No.5 Orchestra

BASIC

Level: 4
BPM: 198-299
Notes: 257


BPM: 217
1
口口口口 |----|
口口口口 |----|
口口口口 |----|
口口口口 |----|
2
口口口口 |--①-|
①③④② |②-③-|
口口口口 |④---|
口口口口 |----|

BPM: 198-208
3
口口口口 |----|
口口口口 |----|
口口口口 |----|
口口口口 |----|

BPM: 214
4
口口口口 |--①-|
口口口口 |②-③-|
①③④② |④---|
口口口口 |----|
5
口口口口 |----|
口口口口 |----|
口口口口 |----|
口口口口 |----|
6
口口口口 |----|
口口口口 |----|
口口口口
口口口口

BPM: 268
口口口口
①口口口
口口口口 |--①-|
口口口口 |----|
7
口口口口 |--①-|
口①②口 |----|
口口口口 |--②-|
口口口口 |----|
8
口口口口 |----|
口口口口 |----|
口口口① |--①-|
口口口口 |----|
9
口口口口 |--①-|
口口口口 |----|
口②①口 |--②-|
口口口口 |----|
10
口口口口 |----|
口口口口 |----|
口口口口 |----|
口口口口 |----|
11
口口口口 |①---|
口①①口 |----|
口口口口 |----|
口口口口 |----|
12
口口口口 |①---|
口口口口 |----|
口①①口 |----|
口口口口 |----|
13
口口口口 |①---|
口口口口
①口口①
口口口口

BPM: 214
口口口口
口口口口 |----|
口口口口
口口口口

BPM: 280
口口口口
②口口②
口口口口 |②---|
口口口口

BPM: 227
口口口口
口口口口
口口口口
口口口口 |----|

BPM: 280
14
①口口① |①---|
口口口口 |----|
口口口口
口口口口

BPM: 201
口口口口
口口口口
口口口口 |----|
口口口口 |----|
15
口口口口 |----|
口口口口 |----|
口口口口
口口口口

BPM: 269
口口口口
①③口②
口口口口 |--①-|
口口口口 |②-③-|
16
口口口口 |①---|
口口①口 |----|
口口口口 |----|
口口口口 |----|
17
口口口口 |----|
口口口口 |----|
口口口口 |----|
口口口口 |----|

BPM: 293
18
口口口口 |--①-|
①②口口 |----|
口口口口 |--②-|
口口口口 |----|
19
口口口口 |--①-|
口口①口 |----|
口口口口 |----|
口口口口 |----|
20
口口口口 |--①-|
口口口口 |----|
口口②① |--②-|
口口口口 |----|
21
口口口口 |--①-|
口口口口 |----|
口①口口 |----|
口口口口 |----|
22
口口口口 |①---|
①口口口 |----|
口口口口 |----|
口口口口 |----|
23
口口口口 |①---|
口口口① |----|
口口口口 |----|
口口口口 |----|
24
口口口口 |①---|
口口口口 |----|
①②口口 |②---|
口口口口 |----|
25
口口口口 |①---|
口口口口 |----|
口口①② |②---|
口口口口 |----|
26
口口口口 |①---|
口口②① |----|
口口口口 |②---|
口口口口 |----|
27
②口口口 |①---|
②①口口 |----|
口口口口 |②---|
口口口口 |----|
28
口口口口 |----|
口口口口 |----|
口口口口 |----|
口口口口 |----|
29
口口口① |----|
口口口① |----|
口口口口 |①---|
口口口口 |----|
30
口口口口 |----|
口口口口 |----|
口口口口 |----|
口口口口 |----|
31
口口口口 |----|
①口口口 |----|
①口口口 |①---|
口口口口 |----|
32
口口口口 |----|
口口口口 |----|
口口口口 |----|
口口口口 |----|
33
口口口口 |----|
口口口口 |----|
口①①口 |①---|
口口口口 |----|
34
口口口口 |----|
口①①口 |----|
口口口口 |①---|
口口口口 |----|

BPM: 277
35
①口口口 |----|
口口口口 |----|
口口口口 |①---|
口口口口 |----|
36
口①②口 |①---|
口口口口 |----|
口口口口 |②---|
口口口口 |----|
37
口口口口 |①---|
口口口口 |----|
②口口① |②---|
口口口口 |----|
38
口口口口 |①---|
②口口① |----|
口口口口 |②---|
口口口口 |----|
39
口口口口 |①---|
口口口口 |----|
口②①口 |②---|
口口口口 |----|
40
口口口口 |①---|
口②①口 |----|
口口口口 |②---|
口口口口 |----|
41
口口口口 |①---|
口口口口 |----|
②口口① |②---|
口口口口 |----|
42
口口口口 |①---|
②口口① |----|
口口口口 |②---|
口口口口 |----|
43
口口口口 |①---|
口②①口 |----|
口口口口 |②---|
口口口口 |----|
44
口口口口 |①---|
口口口口 |----|
口②①口 |②---|
口口口口 |----|
45
口口口口 |①---|
①口口② |----|
口口口口 |②---|
口口口口 |----|
46
口口口口 |①---|
口口口口 |----|
①口口② |②---|
口口口口 |----|

BPM: 278
47
口口口口 |①---|
口①②口 |----|
口口口口 |②---|
口口口口 |----|
48
口①口口 |①---|
口口口口 |----|
口口口口
口口口口

BPM: 282
口口②口
口口口口
口口口口 |②---|
口口口口 |----|
49
口口口口 |①---|
①口口② |----|
口口口口 |②---|
口口口口 |----|

BPM: 285
50
①口口② |①---|
口口口口 |----|
口口口口 |②---|
口口口口 |----|

BPM: 287
51
口口口口 |①---|
口①②口 |----|
口口口口 |②---|
口口口口 |----|

BPM: 289
52
口①口口 |①---|
口口口口 |----|
口口口口
口口口口

BPM: 292
口口口②
口口口②
口口口口 |②---|
口口口口 |----|
53
口口口口 |----|
口口口口 |----|
①口口口 |①---|
口口口口 |----|
54
口口口口 |①---|
口口口口 |----|
口①②口 |②---|
口口口口 |----|
55
口口口口 |①---|
口口口口 |----|
口口口① |②---|
口口口② |----|
56
口口口口 |①---|
口口②口 |----|
口口口口 |②---|
口口①口 |----|
57
口②①口 |①---|
口口口口 |----|
口口口口 |②---|
口口口口 |----|
58
②口口① |①---|
口口口口 |----|
口口口口 |②---|
口口口口 |----|
59
口口口口 |①---|
②口口① |----|
口口口口 |②---|
口口口口 |----|
60
口口口口 |①---|
口口口口 |----|
口口口① |②---|
口口②口 |----|
61
口①②口 |①---|
口口口口 |----|
口口口口 |②---|
口口口口 |----|
62
口口口② |①---|
口①口② |----|
口口口口 |②---|
口口口口 |----|
63
口口口口 |①---|
口口口口 |----|
口①②口 |②---|
口口口口 |----|
64
口口口口 |①---|
口口口口 |----|
口口口② |②---|
口①口② |----|
65
口口口口 |----|
口口口口 |----|
①口口口 |①---|
①口口口 |----|
66
口①①口 |----|
口口口口 |----|
口口口口 |①---|
口口口口 |----|
67
口口口口 |----|
口口口口 |----|
口口口口 |----|
口口口口 |----|

BPM: 265
68
口口口口 |--①-|
①口口口
口口口口
口口口口

BPM: 229
口口口口
口③④② |②-③-|
口口口口 |④---|
口口口口 |----|

BPM: 210-245
69
口口口口 |----|
口口口口 |----|
口口口口 |----|
口口口口 |----|

BPM: 245
70
口口口口 |--①-|
口口口口 |②-③-|
①③④② |④---|
口口口口 |----|

BPM: 227-245
71
口口口口 |----|
口口口口 |----|
口口口口 |----|
口口口口 |----|
72
口口口口 |----|
口口口口
口口口口
口口口口

BPM: 286
口口口口
①口口口 |----|
口口口口 |--①-|
口口口口 |----|
73
口口口口 |--①-|
口①②口 |----|
口口口口 |--②-|
口口口口 |----|
74
口口口口 |----|
口口口口 |----|
口口口① |--①-|
口口口口 |----|
75
口口口口 |--①-|
口口口口 |----|
口②①口 |--②-|
口口口口 |----|
76
口口口口 |----|
口口口口 |----|
口口口口 |----|
口口口口 |----|
77
口口口口 |①---|
口①①口 |----|
口口口口 |----|
口口口口 |----|
78
口口口口 |①---|
口口口口 |----|
口①①口 |----|
口口口口 |----|
79
口口口口 |①---|
②口口② |----|
①口口① |②---|
口口口口 |----|
80
①口口① |①---|
口口口口
口口口口
口口口口

BPM: 207
口口口口
口口口口 |----|
口口口口 |----|
口口口口 |----|
81
口口口口 |----|
口口口口
口口口口
口口口口

BPM: 286
口口口口
①③口② |----|
口口口口 |--①-|
口口口口 |②-③-|
82
口口口口 |①---|
口口①口 |----|
口口口口 |----|
口口口口 |----|
83
口口口口 |----|
口口口口 |----|
口口口口 |----|
口口口口 |----|
84
口口口口 |--①-|
①②口口 |----|
口口口口 |--②-|
口口口口 |----|
85
口口口口 |--①-|
口口①口 |----|
口口口口 |----|
口口口口 |----|
86
口口口口 |--①-|
口口口口 |----|
口口②① |--②-|
口口口口 |----|
87
口口口口 |--①-|
口口口口 |----|
口①口口 |----|
口口口口 |----|
88
口口口口 |①---|
①口口口 |----|
口口口口 |----|
口口口口 |----|
89
口口口口 |①---|
口口口① |----|
口口口口 |----|
口口口口 |----|
90
口口口口 |①---|
口口口口 |----|
①②口口 |②---|
口口口口 |----|
91
口口口口 |①---|
口口口口 |----|
口口①② |②---|
口口口口 |----|
92
口口口口 |①---|
口口②① |----|
口口口口 |②---|
口口口口 |----|
93
②口口口 |①---|
②①口口 |----|
口口口口 |②---|
口口口口 |----|
94
口口口口 |①---|
口口②口 |----|
口口①口 |②---|
口口口口 |----|
95
口口①② |①---|
口口口② |----|
口口口口 |②---|
口口口口 |----|
96
口口口口 |①---|
口②口口 |----|
口①口口 |②---|
口口口口 |----|
97
口①口口 |①---|
②口口口 |----|
②口口口 |②---|
口口口口 |----|
98
口口口口 |①---|
口口②口 |----|
口口①口 |②---|
口口口口 |----|
99
口口①口 |①---|
口口口口 |----|
口②②口 |②---|
口口口口 |----|
100
口口口口 |----|
口①①口 |----|
口口口口 |①---|
口口口口 |----|

BPM: 268
101
①口口口 |----|
口口口口 |----|
口口口口 |①---|
口口口口 |----|
102
口①②口 |①---|
口口口口 |----|
口口口口 |②---|
口口口口 |----|

BPM: 276
103
口口口口 |①---|
口口口口 |----|
②口口① |②---|
口口口口 |----|
104
口口口口 |①---|
②口口① |----|
口口口口 |②---|
口口口口 |----|
105
口口口口 |①---|
口口口口 |----|
口②①口 |②---|
口口口口 |----|
106
口口口口 |①---|
口②①口 |----|
口口口口 |②---|
口口口口 |----|
107
口口口口 |①---|
口口口口 |----|
②口口① |②---|
口口口口 |----|
108
口口口口 |①---|
②口口① |----|
口口口口 |②---|
口口口口 |----|
109
口口口口 |①---|
口②①口 |----|
口口口口 |②---|
口口口口 |----|
110
口口口口 |①---|
口口口口 |----|
口②①口 |②---|
口口口口 |----|
111
口口口口 |①---|
①口口② |----|
口口口口 |②---|
口口口口 |----|
112
口口口口 |①---|
口口口口 |----|
①口口② |②---|
口口口口

BPM: 280
口口口口
口口口口
口口口口
口口口口 |----|
113
口口口口 |①---|
口①②口 |----|
口口口口 |②---|
口口口口 |----|
114
口①口口 |①---|
口口口口 |----|
口口口口
口口口口

BPM: 284
口口②口
口口口口
口口口口 |②---|
口口口口 |----|
115
口口口口 |①---|
①口口② |----|
口口口口 |②---|
口口口口 |----|

BPM: 288
116
①口口② |①---|
口口口口 |----|
口口口口 |②---|
口口口口

BPM: 292
口口口口
口口口口
口口口口
口口口口 |----|
117
口口口口 |①---|
口①口口 |----|
口口口口
口口口口

BPM: 295
口口口口
口口②口
口口口口 |②---|
口口口口 |----|
118
口①口口 |①---|
口口口口 |----|
口口口口
口口口口

BPM: 299
口口口②
口口口②
口口口口 |②---|
口口口口 |----|
119
口口口口 |----|
口口口口 |----|
①口口口 |①---|
口口口口 |----|
120
口口口口 |①---|
口口口口 |----|
口①②口 |②---|
口口口口 |----|
121
口口口口 |①---|
口口口口 |----|
口口口① |②---|
口口口② |----|
122
口口口口 |①---|
口口②口 |----|
口口口口 |②---|
口口①口 |----|
123
口②①口 |①---|
口口口口 |----|
口口口口 |②---|
口口口口 |----|
124
②口口① |①---|
口口口口 |----|
口口口口 |②---|
口口口口 |----|
125
口口口口 |①---|
②口口① |----|
口口口口 |②---|
口口口口 |----|
126
口口口口 |①---|
口口口口 |----|
口口口① |②---|
口口②口 |----|
127
口①②口 |①---|
口口口口 |----|
口口口口 |②---|
口口口口 |----|
128
口口口② |①---|
口①口② |----|
口口口口 |②---|
口口口口 |----|
129
口口口口 |①---|
口口口口 |----|
口①②口 |②---|
口口口口 |----|

BPM: 268
130
口口口口 |①---|
口口口口 |----|
口口口② |②---|
口①口② |----|
131
口口口口 |----|
口口口口 |----|
①口口口 |①---|
①口口口 |----|

BPM: 263
132
口①①口 |----|
口口口口 |----|
口口口口 |①---|
口口口口 |----|
133
口口口口 |①---|
口①①口 |----|
口②②口 |②---|
口口口口 |----|
134
口口口口 |①---|
口口口口 |----|
口口口口
口①①口

BPM: 248
口口口口
②口口②
口口口口 |②---|
口口口口 |----|

BPM: 241-263
135
②口口② |①---|
口口口口 |----|
①口口① |②---|
口口口口 |----|

不確定度: 0

最終更新:2016年09月08日 11:45