sweet sweet everytime sweet
海老名菜々(CV:影山灯)

EXTREME

Level: 8
BPM: 110
Notes: 522

1
口口口口 |------|
口口口口 |------|
口口口口 |------|
口口口口 |------|
2
⑥口口口 |①-②③-④|
口⑥口⑦ |⑤--⑥-⑦|
①口⑤④
口①③②

口⑪⑩⑨
⑫⑬⑧口
口口口⑭ |⑧-⑨⑩--|
口口口口 |⑪-⑫⑬-⑭|
3
口口口口 |①-----|
口口口口 |②-----|
口②①口
②口口口

④口③口
口③口③
口口③口 |③-----|
口口口口 |---④--|
4
⑤⑤⑥⑥ |①--②--|
⑤①②⑥ |③--④--|
口③④口 |⑤-----|
口口口口 |⑥-----|
5
口口口口 |①-----|
口口口口 |②-----|
②②②②
①①①①

④④④④
③③③③
⑤⑥口口 |③-----|
口口口口 |④-⑤⑥--|
6
③口口⑤ |①--②--|
口④①① |③-④--⑤|
口口②②
⑤口口口

口口口口
口口口口
⑥口⑧口 |---⑥--|
口⑦口口 |⑦--⑧--|
7
⑤口口③ |①--②--|
①①④口 |③-④--⑤|
②②口口
口口口⑤

口口口口
口口口口
⑧口⑥口 |---⑥--|
口⑦口口 |⑦--⑧--|
8
⑧③①⑧ |①--②--|
③⑤⑤① |③--④--|
⑥⑦⑦⑥ |⑤--⑥--|
④④②② |⑦--⑧--|
9
口①①口 |①--②--|
口②②口 |③-----|
③③③③
口口口口

口口口口
口口⑨⑧
⑥⑦口口 |---④-⑤|
口口⑤④ |⑥-⑦⑧-⑨|
10
①口口⑤ |①--②--|
口②⑥口 |③--④--|
口⑦③口 |⑤--⑥--|
⑧口口④ |⑦--⑧--|
11
口④④口 |①--②--|
②口口① |③--④--|
②口口①
口③③口

口口口口
口口口口
⑤口口口 |---⑤--|
口⑥⑦口 |⑥--⑦--|
12
口口口口 |①----②|
口口口口 |③-----|
口②③①
口口口口

④口口⑥
口⑤⑦口
口⑨⑪口 |④-⑤⑥-⑦|
⑧口口⑩ |⑧-⑨⑩-⑪|
13
口①②口 |①--②--|
①口口② |③--④--|
④口口③
口④③口

⑤⑥口⑦
口口口⑧
⑫口口口 |⑤-⑥⑦-⑧|
⑪口⑩⑨ |⑨-⑩⑪-⑫|
14
①口口② |①-----|
口①②口 |②-----|
口②①口
口口口口

③口口口
口④口口
口口⑤口 |③--④--|
口口口⑥ |⑤--⑥--|
15
口②①口 |①--②--|
口②①口 |③--④--|
④口口③
口④③口

口口口⑤
口口⑥口
口⑦口口 |---⑤--|
口口口口 |⑥--⑦--|
16
口②③⑦ |①----②|
④口口⑧ |③-----|
口⑤⑥口 |④-⑤⑥--|
①口口口 |⑦--⑧--|
17
⑦⑦⑦⑦ |①--②--|
②④③口 |③-④⑤-⑥|
②⑥⑤① |⑦-----|
⑧⑧⑧⑧ |⑧-----|
18
②口口口 |①-----|
口①口① |---②--|
①口①口
口口口②

口⑥⑥⑤
③④口口
口口④③ |③-④--⑤|
⑤⑥⑥口 |--⑥---|
19
口口口② |①-----|
①口①口 |---②--|
口①口①
②口口口

⑤口口⑥
口口④③
③④口口 |③-④--⑤|
⑦口口⑤ |---⑥-⑦|
20
口口口口 |①--②-③|
③④口⑤ |④--⑤-⑥|
⑥口口②
口①口口

口口口口
口口口口
口⑦口⑩ |⑦--⑧--|
口口⑧⑨ |⑨--⑩--|
21
口③②口 |①--②--|
④口口① |③--④--|
口口口口
口口口口

口⑥口⑥
口⑥⑥口
⑤⑤⑤口 |---⑤--|
口⑤口口 |⑥-----|
22
①口口② |①-----|
①口口口 |---②--|
口口口①
②口口①

⑤⑥⑥口
口口④③
③④口口 |③-④--⑤|
口⑥⑥⑤ |--⑥---|
23
②口口① |①-----|
口口口① |---②--|
①口口口
①口口②

⑥口口⑤
③④口口
口口④③ |③-④--⑤|
⑤口口⑦ |---⑥-⑦|
24
口口口口 |①--②-③|
⑤口④③ |④--⑤-⑥|
②口口⑥
口口①口

口口⑩⑨
⑪⑫⑫⑪
口口⑦口 |⑦--⑧-⑨|
⑧口口口 |⑩--⑪-⑫|
25
③口口③ |①--②--|
口口口口 |③--④--|
口①①口
②④④②

口⑤⑤口
⑤⑥⑥⑤
口⑥⑥口 |⑤-----|
口口口口 |⑥-----|
26
⑥口口口 |①-②③-④|
口⑥口⑦ |⑤--⑥-⑦|
①口⑤④
口①③②

口口⑩⑨
口口⑧口
口⑫⑪口 |⑧-⑨⑩--|
口⑭⑬口 |⑪-⑫⑬-⑭|
27
④①②④ |①-----|
口③③口 |②-----|
②③③① |③--④--|
⑤口口⑤ |⑤-----|
28
口口口口 |①-②③-④|
⑤口口⑧ |⑤-⑥⑦-⑧|
①⑥⑦④
口②③口

⑪⑨⑨⑪
口⑩⑩口
⑫⑬⑬⑫ |⑨--⑩--|
口口口口 |⑪--⑫-⑬|
29
口口口口 |①-----|
口口口口 |---②--|
②口口口
口①①口

口④口④
口④④④
口口④口 |③-----|
口③口口 |④-----|
30
⑥口口口 |①-②③-④|
口⑥口⑦ |⑤--⑥-⑦|
①口⑤④
口①③②

口⑪⑩⑨
⑫⑬⑧口
口口口⑭ |⑧-⑨⑩--|
口口口口 |⑪-⑫⑬-⑭|
31
口口口口 |①-----|
口口口口 |②-----|
口②①口
②口口口

⑥口③⑤
口③④③
口口③⑤ |③--④--|
口口口口 |⑤--⑥--|
32
⑤⑤⑥⑥ |①--②--|
⑤①②⑥ |③--④--|
口③④口 |⑤-----|
口口口口 |⑥-----|
33
⑤口口⑤ |①--②--|
②口口口 |③-④--⑤|
口口③④
①①①①

口口口口
口⑥⑥口
口⑧⑦口 |---⑥--|
口⑩⑨口 |⑦-⑧⑨-⑩|
34
②口口② |①-----|
①口口① |---②--|
①口口①
口口口口

口⑤⑤口
口口口口
③口口④ |③--④--|
口③④口 |⑤-----|
35
②口口② |①-----|
口①①口 |---②--|
口①①口
口口口口

口口口口
口④③口
口⑥⑤口 |③-④⑤-⑥|
⑦口口⑦ |⑦-----|
36
口口口口 |①-②③-④|
⑤口口⑧ |⑤-⑥⑦-⑧|
①⑥⑦④
口②③口

口⑩⑨口
⑪口口口
⑫口口口 |⑨--⑩--|
口口口口 |⑪--⑫--|
37
口口口口 |①--②--|
口口口口 |③--④--|
④口③①
②口①③

⑤⑤⑤⑤
口⑥⑥口
口⑥⑥口 |⑤-----|
口口口口 |⑥-----|
38
②口口② |①-----|
口口口口 |---②--|
①口口①
①口口①

口⑤⑤口
口口口口
③口口④ |③--④--|
口③④口 |⑤-----|
39
②⑤⑤② |①-----|
⑤①①⑤ |---②--|
④①①③ |③--④--|
口④③口 |⑤-----|
40
③口口① |①--②--|
口④②口 |③--④--|
③⑥⑤① |⑤--⑥--|
口⑧⑦口 |⑦--⑧--|
41
①①①① |①--②--|
②②②② |③-----|
③③③③ |④--⑤--|
⑦⑥⑤④ |⑥--⑦--|
42
口①口① |①-----|
口①①① |------|
口口①口 |------|
口口口口 |------|

不確定度: 0

最終更新:2017年07月30日 19:15