時の妖花
ゲーム実況者わくわくバンド

EXTREME

Level: 9
BPM: 150
Notes: 662

1
口口口口 |----|
口口口口 |----|
口口口口 |----|
口口口口 |----|
2
口口口口 |①---|
口①①口 |----|
口①①口 |----|
口口口口 |----|
3
②口③口 |①---|
口①①口 |----|
口①①口 |②-③-|
口④⑤⑥ |④⑤⑥-|
4
口口口口 |①---|
口①①口 |----|
口①①口 |----|
口口口口 |----|
5
①⑤口④ |①--②|
口口口口 |--③-|
口②口③ |④-⑤-|
⑧⑦⑥口 |⑥⑦⑧-|
6
②口口口 |①---|
口①①③ |②---|
④①①口 |③---|
口口口口 |④---|
7
③口④② |①---|
口①①口 |②---|
口①①口 |③-④-|
口⑤⑥⑦ |⑤⑥⑦-|
8
口口口② |①---|
③①①口 |②---|
口①①④ |③---|
口口口口 |④---|
9
口口口① |①-②③|
口②③口 |-④⑤⑥|
口口口口 |⑦---|
④⑤⑥⑦ |----|
10
口口③口 |①--②|
口②口③ |--③-|
①口②口 |④---|
口⑤口④ |⑤---|
11
口③口口 |①--②|
③口②口 |--③-|
口②口① |④---|
④口⑤口 |⑤---|
12
口⑤③④ |①--②|
⑥②口③ |--③-|
①口②⑤ |--④-|
口口⑥口 |⑤-⑥-|
13
②口口口 |①---|
口③①口 |----|
口①③口 |②---|
口口口② |③---|
14
口③口口 |①--②|
③口②口 |--③-|
口②口① |④---|
④口⑤口 |⑤---|
15
口口③口 |①--②|
口②口③ |--③-|
①口②口 |④---|
口⑤口④ |⑤---|
16
④③⑤口 |①--②|
③口②⑥ |--③-|
⑤②口① |--④-|
口⑥口口 |⑤-⑥-|
17
口口口③ |①--②|
口②口口 |--③-|
口口②① |----|
③口①口 |----|
18
口①①口 |①-②③|
②③口口 |-④⑤⑥|
⑦⑥⑤④ |⑦-⑧-|
口⑧⑧⑨ |--⑨-|
19
口②②口 |①---|
③口口③ |②---|
④⑤⑤④ |③-④-|
①⑥⑥口 |⑤-⑥-|
20
②③口② |①-②-|
④①①口 |--③④|
口口口口
口口口口

口口口口
口⑧口⑦
⑤口⑥口 |⑤-⑥-|
口口口口 |⑦-⑧-|
21
②口口② |①---|
③口口③ |----|
口口口口 |----|
①口口① |②-③-|
22
口②②口 |①---|
口口口口 |--②-|
口①①口
口口口口

口口口口
口④④口
③⑥⑥③ |③-④-|
口⑤⑤口 |⑤-⑥-|
23
口口口口 |①-②-|
②口口② |--③-|
③口口③
①口口①

口④④⑥
口⑦口口
口口⑦口 |④-⑤-|
⑥⑤⑤口 |⑥-⑦-|
24
②口口口 |①-②-|
口口①口 |--③④|
口①口口
口③④②

口口⑦口
口口口口
⑥⑧⑧⑤ |⑤-⑥-|
口口口口 |⑦-⑧-|
25
口口口口 |①---|
①③③① |----|
口②②口 |----|
口口口口 |②-③-|
26
口口口口 |①---|
口口口口 |--②③|
口口口口
①③②①

口⑥口⑥
口口⑦口
④⑤口⑤ |④-⑤-|
⑦口口口 |⑥-⑦-|
27
①③②③ |①---|
口②口② |②---|
口③②③ |③---|
口口口① |----|
28
①口①口 |①--②|
⑤口④口 |--③-|
②口②口 |④-⑤-|
③口③口
29
口①口① |①--②|
口④口⑤ |--③-|
口②口② |④-⑤-|
口③口③
30
口③口口 |①-②-|
口口口口 |③-④-|
口④口口
②口①口
31
①口①口 |①--②|
⑤口④口 |--③-|
②口②口 |④-⑤-|
③口③口
32
口①口① |①--②|
口④口⑤ |--③-|
口②口② |④-⑤-|
口③口③
33
口①口口 |①-②-|
口口口口 |③-④-|
口④口③
②口口口
34
①口①口 |①--②|
⑤口④口 |--③-|
②口②口 |④-⑤-|
③口③口
35
口①口① |①--②|
口④口⑤ |--③-|
口②口② |④-⑤-|
口③口③
36
口口口口 |①-②-|
口口口口 |③-④-|
口④口③
②口①口
37
①口①口 |①--②|
⑤口④口 |--③-|
②口②口 |④-⑤-|
③口③口
38
③④口② |①---|
口口⑥⑤ |②-③④|
⑦⑧口口 |⑤⑥⑦⑧|
口①口①
39
口口口口 |①---|
口②口口 |②---|
口口②口
①口口①
40
⑤①③② |①---|
①④口③ |--②-|
口⑥④① |③-④-|
⑦口①⑤ |⑤-⑥⑦|
41
口口口口 |----|
口①②口 |----|
口②①口 |----|
口口口口 |①-②-|
42
②口①口 |①---|
口口口① |--②-|
①口口口
口①口口

口③⑦⑤
③口④⑦
⑦④⑥口 |③-④-|
⑤⑦口口 |⑤-⑥⑦|
43
口①口口 |----|
口口②口 |①---|
口③口口 |②---|
口口口口 |③---|
44
①⑧①⑦ |①-②-|
⑧②⑥② |③-④⑤|
③⑥③口 |--⑥-|
⑦口⑤④ |⑦-⑧-|
45
⑤⑥③⑥ |①-②-|
口④口① |③-④⑤|
③口口口 |----|
口口②口 |⑥---|
46
口口口口 |①---|
口口口口 |----|
①口①口
口口口口

口口口口
②口口②
口③③口 |②---|
口口口口 |③---|
47
①②口① |①②③④|
⑤⑥口口 |⑤⑥⑦⑧|
口口⑧⑦
口口④③

口口⑯⑮
口口⑫⑪
⑨⑩口口 |⑨⑩⑪⑫|
⑬⑭口口 |⑬⑭⑮⑯|
48
①②⑯⑮ |①②③④|
⑤⑥⑫⑪ |⑤⑥⑦⑧|
⑨⑩⑧⑦ |⑨⑩⑪⑫|
⑬⑭④③ |⑬⑭⑮⑯|
49
①②⑯⑮ |①②③④|
⑤⑥⑫⑪ |⑤⑥⑦⑧|
⑨⑩⑧⑦ |⑨⑩⑪⑫|
⑬⑭④③ |⑬⑭⑮⑯|
50
①②⑯⑮ |①②③④|
⑤⑥⑫⑪ |⑤⑥⑦⑧|
⑨⑩⑧⑦ |⑨⑩⑪⑫|
⑬⑭④③ |⑬⑭⑮⑯|
51
①口口⑧ |①-②-|
口③⑤④ |③-④⑤|
⑥口②口 |--⑥-|
口口⑦口 |⑦-⑧-|
52
③①②口 |①-②-|
⑥④⑤⑥ |③-④⑤|
口②①③ |--⑥-|
口⑦⑦口 |⑦---|
53
④口口④ |①--②|
口②②口 |--③-|
①③③① |④---|
口⑤⑤口 |⑤---|
54
口②②口 |①---|
①口口① |--②-|
①口口①
口口口口

④口口④
⑥③③⑥
⑤口口⑤ |③-④-|
口口口口 |⑤-⑥-|
55
口②口③ |①--②|
口口口口 |--③-|
口①①口
①①①①

口口口口
④口⑥口
口⑤口口 |--④-|
口口口口 |⑤-⑥-|
56
口口口④ |①--②|
口③口⑤ |--③-|
口口口① |----|
口口②口 |--④⑤|
57
⑤口②口 |①-②③|
⑥口③口 |④-⑤⑥|
口口④①
口口口口

口⑧口口
口⑨口⑪
⑦⑩口⑫ |⑦-⑧⑨|
口口口口 |⑩-⑪⑫|
58
口口口口 |①--②|
②口②口 |--③-|
口口口口
③口③①

口口⑤口
口⑥口⑥
口④口口 |④-⑤-|
口⑦口⑦ |⑥-⑦-|
59
①口口① |--①-|
③⑥口口 |--②-|
④②口⑦ |③④⑤-|
⑤口口口 |⑥-⑦-|
60
口口②口 |--①-|
口口口③ |--②-|
⑦口⑥④ |③④⑤-|
口①口⑤ |⑥-⑦-|
61
口①口② |①---|
口口口口 |②---|
④口③口 |③---|
口口口口 |④---|
62
口口口⑩ |①②③④|
⑧⑨口⑥ |⑤-⑥-|
口⑤⑦口 |⑦-⑧-|
④③②① |⑨-⑩-|
63
口③③口 |①--②|
口口口口 |--③-|
⑤②②⑥ |--④-|
①口④① |⑤-⑥-|
64
①口口① |①--②|
口②②口 |--③-|
口口口口
口③③口

⑥口口⑤
④口口口
口口口口 |--④-|
口口口口 |⑤-⑥-|
65
④口口口 |①--②|
③⑤⑥③ |--③-|
④②②口 |--④-|
①⑤⑥① |⑤-⑥-|
66
③③③③ |①--②|
⑧⑦⑥⑤ |--③-|
口②②口 |--④-|
①口④① |⑤⑥⑦⑧|
67
口③③口 |①--②|
口口口口 |--③-|
⑥②②⑤ |--④-|
①④口① |⑤-⑥-|
68
①口口① |①--②|
口②②口 |--③-|
口口口口
口③③口

⑤口口⑥
口口口④
口口口口 |--④-|
口口口口 |⑤-⑥-|
69
口口口④ |①--②|
③⑥⑤③ |--③-|
口②②④ |--④-|
①⑥⑤① |⑤-⑥-|
70
③③③③ |①--②|
口口口口 |--③-|
口②②口 |----|
①口口① |----|
71
口口口口 |①---|
①①①① |----|
口口口口 |----|
口口口口 |----|
72
口口口口 |①---|
口口口口 |----|
①①①①
口口口口

口口口口
口口口口
④⑤⑥口 |②-③-|
口③口② |④⑤⑥-|
73
口①①口 |①--②|
口②②口 |--③-|
④口口④ |④---|
③口口③
74
①口口① |①--②|
②口口② |--③-|
口④④口 |④---|
口③③口
75
口①①口 |①--②|
口②②口 |--③-|
口口口口 |④---|
③④④③
76
①①①① |①---|
口口口口 |----|
口口口口 |----|
口口口口 |----|

不確定度: 0

最終更新:2017年08月03日 01:08