零の位相
kradness

EXTREME

Level: 9
BPM: 190-205
Notes: 604

BPM: 190
1
口口口口 |----|
口口口口 |----|
口口口口 |----|
口口口口 |----|
2
口口口口 |----|
口①口口 |①---|
口口②口 |②---|
口③口口 |③---|
3
口口④③ |①---|
口②口口 |----|
口口口口 |②-③-|
口口①口 |--④-|
4
口口口口 |----|
①口口口 |①---|
口②口口 |②---|
口口③口 |③---|
5
⑤口口口 |①---|
口口口① |②---|
口④②口 |③---|
口③口口 |④-⑤-|
6
口口口① |--①-|
口口口口 |②---|
口口②口 |----|
口口口口 |----|
7
口口口③ |①---|
口①①口 |----|
口口口口 |②---|
口②口口 |--③-|
8
口口口口 |----|
口口①口 |①---|
口口②口 |②---|
口口③口 |③---|
9
②①①② |①---|
口口口口 |--②-|
口口口口 |----|
口口口口 |----|
10
口口口口 |----|
口口口口 |----|
口口口口 |----|
口口口口 |----|
11
口口口口 |----|
口口口口 |----|
口口口口 |----|
口口口口 |----|

BPM: 205.001
12
口口口口 |----|
口口口口 |----|
口口口口 |----|
①①①① |--①-|
13
②口口① |----|
口③⑤口 |①---|
口口④口 |②-③-|
口口口口 |④-⑤-|
14
口③口口 |①-②-|
③口口④ |--③-|
⑤①口口 |--④-|
②口口⑥ |⑤-⑥-|
15
口⑥⑥① |--①-|
口②口口 |②-③-|
口口⑤③ |④-⑤-|
口④口口 |--⑥-|
16
③口口⑥ |--①-|
②口口⑤ |②-③-|
①口口④ |--④-|
口口口口 |⑤-⑥-|
17
口口⑤口 |--①-|
⑤口口口 |②---|
口③①口 |③-④-|
口②④口 |--⑤-|
18
口⑤口口 |--①-|
口口①④ |--②-|
①③②口 |--③-|
②口口口 |④-⑤-|
19
⑥口口口 |--①-|
口①⑤口 |②---|
④口口② |③-④-|
口口③口 |⑤-⑥-|
20
口④②④ |----|
口口口口 |①---|
口①①口 |②-③-|
口③口口 |④---|
21
⑦⑦口口 |①---|
口⑤⑥⑥ |②-③-|
④口③③ |④-⑤-|
②口①① |⑥-⑦-|
22
口口口口 |①---|
②口⑤⑤ |②-③-|
④口③③ |④---|
⑤口①① |⑤---|
23
⑥⑥口口 |①---|
口口⑤⑤ |--②-|
④口②② |③-④-|
口③①① |⑤-⑥-|
24
口口口口 |①---|
口②⑤⑤ |②-③-|
口④③③ |④---|
口⑤①① |⑤---|
25
①口口① |①---|
③口口⑥ |②-③-|
口口⑤口 |--④-|
口口②④ |⑤-⑥-|
26
口口①口 |①---|
口③⑥口 |②-③-|
口⑤口口 |--④-|
口②④口 |⑤-⑥-|
27
口①口口 |①---|
③⑥口口 |②-③-|
⑤口口口 |--④-|
②④口口 |⑤-⑥-|
28
①⑤⑤③ |①---|
口口口口 |②-③-|
口口口口 |--④-|
②④口口 |⑤---|
29
⑥⑥口口 |①---|
②口⑤⑤ |②-③-|
④口③③ |④---|
⑤口①① |⑤-⑥-|
30
口口口口 |①---|
口②⑤⑤ |②-③-|
口④③③ |④---|
口⑤①① |⑤---|
31
口⑤口口 |①---|
④口④④ |--②-|
③③②② |③---|
口口①① |④-⑤-|
32
口口口口 |①---|
口②⑤⑤ |②-③-|
口④③③ |④---|
口⑤①① |⑤---|
33
①口口① |①---|
③口口⑥ |②-③-|
口口⑤口 |--④-|
口口②④ |⑤-⑥-|
34
口口①口 |①---|
口③⑥口 |②-③-|
口⑤口口 |--④-|
口②④口 |⑤-⑥-|
35
口①口口 |①---|
③⑥口口 |②-③-|
⑤口口口 |--④-|
②④口口 |⑤-⑥-|
36
①口口③ |①---|
⑪口口⑩ |②-③-|
⑨⑤④⑧ |④⑤⑥⑦|
②⑦⑥口 |⑧⑨⑩⑪|
37
口①①口 |①---|
④②③口 |----|
口口②口 |②-③-|
口口④口 |--④-|
38
③口口② |----|
口口口① |①---|
①口口③ |②---|
②口口口 |③---|
39
⑤口①④ |①---|
⑤③④② |②-③-|
②口③口 |--④-|
口①口口 |--⑤-|
40
口口口口 |①-②-|
口⑧口⑦ |③-④-|
④⑥⑤口 |⑤-⑥-|
口②③① |⑦-⑧-|
41
口口①④ |①---|
口口①口 |----|
④口③口 |②-③-|
口②口② |--④-|
42
①口口口 |----|
③口口② |①---|
口②口③ |②---|
口口①口 |③---|
43
口口口口 |①-②-|
口口口⑦ |③-④-|
④⑥⑤口 |⑤-⑥-|
①②③① |⑦---|
44
⑦口口口 |①-②-|
口⑧口⑦ |③-④-|
④⑥⑤口 |⑤-⑥-|
口②③① |⑦-⑧-|
45
口口①口 |①---|
口口①口 |②---|
口口口④ |③---|
③③口② |④---|
46
①口口② |①---|
④①口④ |②---|
口口口口 |③---|
口③③口 |④---|
47
⑤④①⑥ |①-②-|
口③②⑦ |③-④-|
④口⑧① |⑤-⑥-|
口口口⑦ |⑦-⑧-|
48
⑤口口⑦ |①-②-|
②⑥⑧口 |③-④-|
⑦①口⑤ |⑤-⑥-|
②③④口 |⑦-⑧-|
49
⑭②①⑬ |①②③④|
⑥⑯⑮⑤ |⑤⑥⑦⑧|
⑫④③⑪ |⑨⑩⑪⑫|
⑧⑩⑨⑦ |⑬⑭⑮⑯|
50
⑤①①口 |①---|
⑤口口② |②---|
口口②④ |③---|
③③口④ |④-⑤-|
51
⑥②②② |--①-|
口口④口 |②---|
⑥③口口 |③-④-|
③⑤①口 |⑤-⑥-|
52
口口②③ |--①-|
口口④② |②---|
⑥⑤口口 |③-④-|
口⑥①口 |⑤-⑥-|
53
口③②口 |--①-|
③④口② |②---|
口口⑤⑥ |③-④-|
①口⑥口 |⑤-⑥-|
54
②⑤⑤⑤ |--①-|
口口①③ |②---|
④口口口 |③-④-|
①④口② |--⑤-|
55
②口⑥口 |--①-|
④①③⑥ |②---|
口⑤口口 |③-④-|
③口④口 |⑤-⑥-|
56
②口口③ |--①-|
口②③口 |②---|
口口①口 |③---|
④④口口 |④---|
57
⑦⑦⑧⑦ |①-②-|
④④⑥⑤ |③-④-|
①①④③ |⑤-⑥-|
口口②① |⑦-⑧-|
58
⑧口⑧⑦ |①-②-|
④⑦⑥⑤ |③-④-|
⑥①④③ |⑤-⑥-|
③⑤②① |⑦-⑧-|
59
⑥②口口 |--①-|
口⑥④口 |②---|
口⑤③口 |③-④-|
口口①③ |⑤-⑥-|
60
口⑤口① |--①-|
⑤口口口 |②---|
②口口③ |③-④-|
④②③口 |⑤---|
61
⑤⑦⑥⑤ |①②③④|
口②①口 |⑤---|
⑥④③⑦ |⑥---|
口口口口 |⑦---|
62
⑥口口⑥ |①②③④|
⑥②①⑥ |⑤-⑥-|
口④③口 |--⑦-|
⑧口⑤⑦ |⑧---|
63
⑥③③⑥ |①---|
口口⑤口 |②-③-|
①④口① |④-⑤-|
口口②口 |⑥---|
64
⑦口口⑦ |①-②-|
④口口④ |③-④-|
①⑤②① |⑤-⑥-|
口③⑥口 |⑦---|
65
口④①口 |①-②-|
口③②⑦ |③-④-|
④口⑧① |⑤-⑥-|
口⑤⑥⑦ |⑦-⑧-|
66
③⑨⑨③ |①-②-|
①④④口 |③---|
⑥②口⑤ |④-⑤⑥|
①⑧⑦口 |⑦⑧⑨-|
67
②口口① |----|
口③⑤口 |①---|
口口④口 |②-③-|
口口口口 |④-⑤-|
68
口③口口 |①-②-|
③口口④ |--③-|
⑤①口口 |--④-|
②口口⑥ |⑤-⑥-|
69
口⑥⑥① |--①-|
口②口口 |②-③-|
口口⑤③ |④-⑤-|
口④口口 |--⑥-|
70
③口口⑥ |--①-|
②口口⑤ |②-③-|
①口口④ |--④-|
口口口口 |⑤-⑥-|
71
口口⑤口 |--①-|
⑤口口口 |②---|
口③①口 |③-④-|
口②④口 |--⑤-|
72
口⑤口口 |--①-|
口口①④ |--②-|
①③②口 |--③-|
②口口口 |④-⑤-|
73
⑥口口口 |--①-|
口①⑤口 |②---|
④口口② |③-④-|
口口③口 |⑤-⑥-|
74
口⑦⑦① |----|
口口口⑥ |①---|
⑤口口④ |②③④⑤|
③口口② |⑥-⑦-|
75
②口口① |----|
口③⑤口 |①---|
口口④口 |②-③-|
口口口口 |④-⑤-|
76
口③口口 |①-②-|
③口口④ |--③-|
⑤①口口 |--④-|
②口口⑥ |⑤-⑥-|
77
口⑥⑥① |--①-|
口②口口 |②-③-|
口口⑤③ |④-⑤-|
口④口口 |--⑥-|
78
③口口⑥ |--①-|
②口口⑤ |②-③-|
①口口④ |--④-|
口口口口 |⑤-⑥-|
79
口口⑤口 |--①-|
⑤口口口 |②---|
口③①口 |③-④-|
口②④口 |--⑤-|
80
口⑤口口 |--①-|
口口①④ |--②-|
①③②口 |--③-|
②口口口 |④-⑤-|
81
⑥口口口 |--①-|
口①⑤口 |②---|
④口口② |③-④-|
口口③口 |⑤-⑥-|
82
口⑥⑥① |----|
口⑥⑥口 |①---|
⑤口口④ |②③④⑤|
③口口② |⑥---|

不確定度: 0

最終更新:2017年08月03日 01:10