NISHIMURA -祭- CARNIVAL
S-C-U×U1 feat. VENUS

EXTREME

Level: 9
BPM: 158
Notes: 646

1
口口口口 |----|
口口口口 |----|
口口口口 |----|
口口口口 |----|
2
②④⑥⑧ |①-②-|
口口口口 |③-④-|
①口口口 |⑤-⑥-|
①③⑤⑦ |⑦-⑧-|
3
②④⑥⑧ |①-②-|
口口口口 |③-④-|
①口口口 |⑤-⑥-|
①③⑤⑦ |⑦-⑧-|
4
②④⑥⑧ |①-②-|
口口口口 |③-④-|
①口口口 |⑤-⑥-|
①③⑤⑦ |⑦-⑧-|
5
②④⑥⑧ |①-②-|
口口口口 |③-④-|
①口⑤⑦ |⑤-⑥-|
①③⑤⑦ |⑦-⑧-|
6
①口口口 |①--②|
口口口④ |--③-|
③口⑤口 |④--⑤|
口②口⑥ |--⑥-|
7
口口口① |①--②|
④口口口 |--③-|
口⑤口③ |④--⑤|
⑥口②口 |--⑥-|
8
①口口口 |①--②|
口口口④ |--③-|
③口⑤口 |④--⑤|
口②口⑥ |--⑥-|
9
口口口① |①--②|
④口⑤口 |--③-|
④口⑤③ |④-⑤-|
口口②口 |----|
10
③⑤③口 |①-②-|
口④口④ |③---|
口②口口 |④---|
①口口⑥ |⑤-⑥-|
11
口口⑤② |①---|
③口③口 |②-③-|
③③③口 |--④-|
①③①④ |--⑤-|
12
口口口⑥ |--①-|
⑤口口口 |②-③-|
③④口口 |④-⑤-|
①②口口 |--⑥-|
13
口口口口 |--①-|
口④口口 |②-③-|
⑤口①② |--④-|
口⑥③口 |⑤-⑥-|
14
②③⑦口 |--①-|
口④⑥口 |②-③-|
口口口⑤ |④-⑤-|
口口口① |⑥-⑦-|
15
②⑤口⑤ |①---|
口③口③ |②-③-|
口③③③ |--④-|
①④③④ |--⑤-|
16
①口②口 |--①-|
⑤口口⑥ |②-③-|
⑤口口⑥ |④--⑤|
口④口③ |--⑥-|
17
③①①口 |①---|
口②②口 |②-③-|
口③口口
②口口②

口⑤⑤④
口口口口
口口④口 |④---|
口口口口 |⑤---|
18
口口口口 |①---|
②口②口 |②---|
口口口口
口①①口

口口口口
口口口口
③③③口 |③---|
口④口口 |④---|
19
口③①③ |①---|
口②口① |②---|
口④②④ |③---|
口口口口 |④---|
20
④口口口 |①---|
口口①口 |--②-|
口口口口 |③---|
②口口③ |--④-|
21
口⑤①口 |①-②-|
⑤④⑤口 |③-④-|
③⑤②口 |--⑤-|
口口口⑥ |--⑥-|
22
口口口⑥ |①-②-|
口口⑤④ |③-④-|
口口③② |⑤-⑥-|
⑦口①口 |--⑦-|
23
⑥口⑧口 |①-②-|
④⑤口口 |③-④-|
②③⑦口 |⑤-⑥-|
口①口口 |⑦-⑧-|
24
口口口口 |----|
口口口② |----|
口口口口 |----|
①口口口 |①-②-|
25
①口口② |①-②-|
口口口口 |③④⑤⑥|
③④⑤⑥
口口口口

⑪⑫⑬⑭
⑦⑧⑨⑩
口口口口 |⑦⑧⑨⑩|
口口口口 |⑪⑫⑬⑭|
26
口口口口 |①-②-|
⑤③③⑤ |--③-④-|
①口口② |⑤---|
①④④② |----|
27
①口口④ |①--②|
③②口⑤ |--③-|
②①⑥口 |④-⑤-|
口口口⑦ |⑥-⑦-|
28
①口①口 |①--②|
口②②口 |--③-|
口③口③
口口口口

⑥口口⑤
口口口口
口口口口 |④-⑤-|
④④口口 |⑥---|
29
口口口口 |①--②|
②②口口 |--③-|
口③③口
口口①①

口口⑥口
⑦口④口
口口口口 |④-⑤-|
口⑤口口 |⑥-⑦-|
30
口②口口 |①---|
口口口③ |②-③-|
口⑤⑤口 |④---|
④口④① |⑤---|
31
口①①口 |①--②|
②口口口 |--③-|
②口口口
口③③口

④口⑥口
口⑤口口
口口口口 |④-⑤-|
⑦口口口 |⑥-⑦-|
32
⑥①口⑤ |①--②|
②口⑦① |--③-|
④口②③ |④-⑤-|
口③④口 |⑥-⑦-|
33
口口②口 |①--②|
⑦③口口 |--③-|
口⑥④口 |④-⑤-|
⑤口口① |⑥-⑦-|
34
口①①口 |①---|
口口口② |②-③-|
③⑤⑤口 |④---|
口④口④ |⑤---|
35
⑥①口⑤ |①--②|
④③口口 |--③-|
③④口口 |④-⑤-|
②⑦⑧口 |⑥-⑦⑧|
36
⑤口②⑥ |①--②|
口口③④ |--③-|
口口④③ |④-⑤-|
口口口① |⑥---|
37
口口口口 |①--②|
①①口口 |--③-|
口口③口
口③②②

口④口④
口⑤⑤⑤
口⑥口⑥ |④--⑤|
口口口口 |--⑥-|
38
①口③口 |①---|
口③口口 |②---|
口口③口 |③---|
②③口② |----|
39
口①口① |①---|
②②①口 |----|
②②口口 |②---|
口口口口 |----|
40
口口⑤⑤ |①---|
④③③⑤ |②-③-|
③③①② |--④-|
⑤①④① |⑤---|
41
③口④口 |①-②-|
③口④口 |----|
口②口① |③-④-|
口②口① |----|
42
口口口① |①---|
口②③口 |②-③-|
口③②口
①口口口

口口⑤⑤
④口口⑤
口口口口 |--④-|
⑤口④口 |⑤---|
43
①②口口 |①--②|
口③口口 |--③-|
口口口口 |④-⑤-|
⑦⑥⑤④ |⑥-⑦-|
44
口口②① |①--②|
口口③口 |--③-|
④⑤⑥⑦ |④-⑤-|
口口口口 |⑥-⑦-|
45
口口⑦① |①--②|
口口④② |--③-|
⑥口口口 |④-⑤-|
⑤口口③ |⑥-⑦-|
46
①口口口 |①--②|
②④口口 |--③-|
⑦口口⑥ |④-⑤-|
③⑧口⑤ |⑥-⑦⑧|
47
②口④口 |①--②|
③③⑥⑥ |--③-|
口口口⑤ |④--⑤|
口口①⑤ |--⑥-|
48
口①④口 |①--②|
③③⑥⑥ |--③-|
②口口口 |④--⑤|
②口⑤⑤ |--⑥-|
49
④口口③ |①--②|
口②口口 |--③-|
③口①② |④---|
①口口④ |----|
50
④口⑦③ |①--②|
口②口口 |--③-|
③⑥①② |④-⑤-|
①口⑤④ |⑥-⑦-|
51
口③口口 |①--②|
口口④口 |--③-|
③口②② |④---|
①①口④ |----|
52
①口③口 |①---|
口②口④ |②---|
口口口口 |③---|
口口口口 |④---|
53
①①②② |①---|
①②①口 |②---|
①口①②
口②②口

口口口口
④口口③
口口口口 |③---|
④口口③ |④---|
54
②②①① |①-②-|
口口口口 |③-④-|
③③④④
口口口口

口口⑥⑥
⑤口口⑥
口口口口 |--⑤-|
⑥口⑤口 |⑥---|
55
①口口④ |①--②|
③②口⑤ |--③-|
②①⑥口 |④-⑤-|
口口口⑦ |⑥-⑦-|
56
①口①口 |①--②|
口②②口 |--③-|
口③口③
口口口口

⑥口口⑤
口口口口
口口口口 |④-⑤-|
④④口口 |⑥---|
57
口口口口 |①--②|
②②口口 |--③-|
口③③口
口口①①

口口⑥口
⑦口④口
口口口口 |④-⑤-|
口⑤口口 |⑥-⑦-|
58
口②口口 |①---|
口口口③ |②-③-|
口⑤⑤口 |④---|
④口④① |⑤---|
59
口①①口 |①--②|
②口口口 |--③-|
②口口口
口③③口

④口⑥口
口⑤口口
口口口口 |④-⑤-|
⑦口口口 |⑥-⑦-|
60
⑥①口⑤ |①--②|
②口⑦① |--③-|
④口②③ |④-⑤-|
口③④口 |⑥-⑦-|
61
口口②口 |①--②|
⑦③口口 |--③-|
口⑥④口 |④-⑤-|
⑤口口① |⑥-⑦-|
62
口①①口 |①---|
口口口② |②-③-|
③⑤⑤口 |④---|
口④口④ |⑤---|
63
⑥①口⑤ |①--②|
④③口口 |--③-|
③④口口 |④-⑤-|
②⑦⑧口 |⑥-⑦⑧|
64
⑤口②⑥ |①--②|
口口③④ |--③-|
口口④③ |④-⑤-|
口口口① |⑥---|
65
口口口口 |①--②|
①①口口 |--③-|
口口③口
口③②②

④④口口
⑤口⑤口
⑥⑥口口 |④--⑤|
口口口口 |--⑥-|
66
③口口③ |①---|
口③③① |②---|
口口口① |③---|
②口①② |----|
67
口口口⑥ |①--②|
口④⑦① |③-④-|
口⑧②口 |⑤-⑥-|
①③⑤⑦ |⑦-⑧-|
68
①口⑦⑤ |①--②|
⑥④口③ |③-④-|
②⑦口① |⑤-⑥-|
口口⑧口 |⑦-⑧-|
69
③①口口 |①--②|
⑤⑧②⑥ |③-④-|
⑦口⑦① |⑤-⑥-|
口口口④ |⑦-⑧-|
70
口口①① |①--②|
④口②口 |③-④-|
口口口口
①③口口

口口口口
口口口口
口⑤口口 |⑤---|
⑥口⑤⑥ |⑥---|
71
①①口口 |①--②|
口口④④ |--③-|
③口⑤口 |④--⑤|
口②口⑥ |--⑥-|
72
口口①① |①--②|
④④口口 |--③-|
口⑤口③ |④--⑤|
⑥口②口 |--⑥-|
73
①①口口 |①--②|
口口④④ |--③-|
③口⑤口 |④--⑤|
口②口⑥ |--⑥-|
74
口口①① |①--②|
④口⑤口 |--③-|
④口⑤③ |④-⑤-|
口口②口 |----|

不確定度: 0

最終更新:2017年03月04日 23:53