STREET DANCER
SILKY F

BASIC

Level: 3
BPM: 138
Notes: 220

1
口口口口 |----|
口口口口 |----|
口口口口 |----|
口口口口 |----|
2
口口口口 |①---|
口②②口 |----|
口①①口 |②---|
口口口口 |----|
3
口①口口 |①---|
口口②口 |②---|
口③口口 |③---|
口口④口 |④---|
4
口口口口 |①---|
口口口口 |----|
口②②① |②---|
口口口口 |----|
5
口④口口 |①---|
口口③口 |②---|
口②口口 |③---|
口口①口 |④---|
6
口口口口 |①---|
①①口口 |----|
口口口口 |----|
口口口口 |----|
7
口①口口 |①---|
口口②口 |②---|
口③口口 |③---|
口口④口 |④---|
8
口口口口 |①---|
口口口口 |----|
口②②① |②---|
口口口口 |----|
9
口④口口 |①---|
口口③口 |②---|
口②口口 |③---|
口口①口 |④---|
10
口口口口 |①---|
①①口口 |----|
口口口口 |----|
口口口口 |----|
11
口口口口 |----|
口口③② |①---|
口口口① |②---|
口口口口 |③---|
12
口口口口 |①---|
②①口口 |②---|
③口口口 |③---|
口口口口 |----|
13
口③口口 |----|
口口②口 |①---|
口①口口 |②---|
口口口口 |③---|
14
口口①口 |①---|
口②口口 |②---|
口口③口 |③---|
口④口口 |④---|
15
口口口口 |①---|
口口口口 |----|
①口口① |----|
口口口口 |----|
16
口口口口 |----|
口口口口 |①---|
口②口口 |②---|
①口③口 |③---|
17
口口口口 |①---|
口口口② |----|
口口口① |----|
口口口口 |②---|
18
③口①口 |①---|
口②口口 |②---|
口口口口 |③---|
口口口口 |----|
19
口口口口 |----|
②③口口 |①---|
①口口口 |②---|
口口口口 |③---|
20
口口口口 |①---|
口口①② |②---|
口口口③ |③---|
口口口口 |----|
21
口口③口 |----|
口②口口 |①---|
口口①口 |②---|
口口口口 |③---|
22
口①口口 |①---|
口口②口 |②---|
口③口口 |③---|
口口④口 |④---|
23
口口口口 |①---|
口口口口 |----|
①口口① |----|
口口口口 |----|
24
口口口口 |----|
口口口口 |①---|
口口②口 |②---|
口③口① |③---|
25
口口口口 |①---|
②口口口 |----|
①口口口 |----|
口口口口 |②---|
26
口①口③ |①---|
口口②口 |②---|
口口口口 |③---|
口口口口 |----|
27
②口①口 |①---|
口④口③ |②---|
口口口口 |③---|
口口口口 |④---|
28
口口口口 |①---|
口口口口 |②---|
②口①口 |③---|
口③③口 |----|
29
口④口口 |①---|
②口口口 |②---|
口③口口 |③---|
①口口口 |④---|
30
口口口口 |①---|
口口②③ |②---|
口口口③ |③---|
口口①口 |----|
31
②口①口 |①---|
口④口③ |②---|
口口口口 |③---|
口口口口 |④---|
32
口口口口 |①---|
口口口口 |②---|
②口①口 |③---|
口③③口 |----|
33
口③③口 |①---|
口②②口 |--②-|
口①①口 |③---|
口口口口 |----|
34
①口口① |①---|
②口口② |②---|
③口口③ |③---|
口口口口 |----|
35
口口口口 |----|
口口口口 |----|
口口口口 |----|
口口口口 |----|
36
口①口口 |①---|
口口②口 |②---|
口③口口 |③---|
口口④口 |④---|
37
口口口口 |①---|
口口口口 |----|
口②②① |②---|
口口口口 |----|
38
口④口口 |①---|
口口③口 |②---|
口②口口 |③---|
口口①口 |④---|
39
口口口口 |①---|
①①口口 |----|
口口口口 |----|
口口口口 |----|
40
口①口口 |①---|
口口②口 |②---|
口③口口 |③---|
口口④口 |④---|
41
口口口口 |①---|
口口口口 |----|
口②②① |②---|
口口口口 |----|
42
口④口口 |①---|
口口③口 |②---|
口②口口 |③---|
口口①口 |④---|
43
口口口口 |①---|
①①口口 |----|
口口口口 |----|
口口口口 |----|
44
②口①口 |①---|
口④口③ |②---|
口口口口 |③---|
口口口口 |④---|
45
口口口口 |①---|
口口口口 |②---|
②口①口 |③---|
口③③口 |----|
46
口口④口 |①---|
口口口② |②---|
口口③口 |③---|
口口口① |④---|
47
口口口口 |①---|
③②口口 |②---|
③口口口 |③---|
口①口口 |----|
48
①口②口 |①---|
口③口④ |②---|
口口口口 |③---|
口口口口 |④---|
49
口口口口 |①---|
口口口口 |②---|
①口②口 |③---|
口③③口 |----|
50
口③③口 |①---|
口②②口 |--②-|
口①①口 |③---|
口口口口 |----|
51
①口口① |①---|
②口口② |②---|
③口口③ |③---|
口口口口 |----|
52
口④口口 |①---|
口口③口 |②---|
口②口口 |③---|
口口①口 |④---|
53
口口①口 |①---|
口②口口 |②---|
口③③口 |③---|
口口口口 |----|
54
口口口口 |①---|
口②口④ |②---|
①口③口 |③---|
口口口口 |④---|
55
口口口口 |①---|
口③②口 |②---|
口③口① |③---|
口口口口 |----|
56
口①口口 |①---|
口口②口 |②---|
口③口口 |③---|
口口④口 |④---|
57
口口口口 |①---|
口③③口 |②---|
口口②口 |③---|
口①口口 |----|
58
①口口① |①---|
②口口② |--②-|
③口口③ |③---|
口口口口 |----|
59
口③③口 |①---|
口②②口 |②---|
口①①口 |③---|
口口口口 |----|
60
①口口口 |①---|
②③口口 |②---|
口④口口 |③---|
口口口口 |④---|
61
口口口④ |①---|
口口②③ |②---|
口口①口 |③---|
口口口口 |④---|
62
口①①口 |①---|
口口口口 |----|
口口口口 |----|
口口口口 |----|


不确定度: 0

タグ:

+ タグ編集
  • タグ:

このサイトはreCAPTCHAによって保護されており、Googleの プライバシーポリシー利用規約 が適用されます。

最終更新:2012年11月10日 14:33