FUJIMORI -祭- FESTIVAL
VENUS

EXTREME

Level: 9
BPM: 158
Notes: 624

1
口口口口 |----|
口口口口 |----|
口口口口 |----|
口口口口 |----|
2
口口口④ |①---|
口口口口 |②---|
口①②口 |③---|
口④③口 |④---|
3
口口口⑥ |①---|
口口口⑤ |②---|
口①②④ |③-④-|
口⑤③口 |⑤-⑥-|
4
口口口④ |①---|
口口口口 |②---|
口①②口 |③---|
口④③口 |④---|
5
口口口④ |①---|
口口口③ |----|
口①口② |--②-|
口口口口 |③-④-|
6
③口口⑥ |①--②|
口口口口 |③-④-|
口②④口 |⑤---|
⑤①①口 |⑥---|
7
③口口⑧ |①--②|
口口口⑦ |③-④-|
口②④⑥ |⑤-⑥-|
⑤①①口 |⑦-⑧-|
8
③口口⑥ |①--②|
口口口口 |③-④-|
口②④口 |⑤---|
⑤①①口 |⑥---|
9
④口②⑨ |①-②③|
口口口⑧ |④-⑤-|
口③⑤⑦ |⑥-⑦-|
⑥①①口 |⑧-⑨-|
10
③口口⑥ |①--②|
口口口口 |③-④-|
口②④口 |⑤---|
⑤①①口 |⑥---|
11
③口口⑧ |①--②|
口口口⑦ |③-④-|
口②④⑥ |⑤-⑥-|
⑤①①口 |⑦-⑧-|
12
③口口⑥ |①--②|
口口口口 |③-④-|
口②④口 |⑤---|
⑤①①口 |⑥---|
13
④口②口 |①-②③|
口口口口 |④-⑤-|
口③⑤口
口①①口

口口口⑨
口口口⑧
口口口⑦ |⑥-⑦-|
⑥⑧口口 |⑧-⑨-|
14
口①①口 |①---|
②口口口 |--②-|
口口口口
口口口口

口⑤口口
口口口③
口口④口 |--③-|
口口口口 |④-⑤-|
15
口口①口 |①--②|
口口②口 |③-④-|
④口口口
口③口口

口口口口
口⑤⑦口
口口口⑥ |⑤---|
口口口口 |⑥-⑦-|
16
口②口① |①---|
口③口口 |----|
口④口口 |--②-|
口口口口 |③-④-|
17
口口①口 |①--②|
口⑤②① |③-④-|
④口口口 |⑤---|
⑦③口⑥ |⑥-⑦-|
18
⑥①⑤⑤ |①--②|
①口④④ |③-④-|
口口口口 |⑤---|
口②③口 |⑥---|
19
⑥①⑤⑤ |①--②|
①口④④ |③-④-|
口口口口 |⑤---|
口②③口 |⑥---|
20
⑥①⑤⑤ |①--②|
①口④④ |③-④-|
口口口口 |⑤---|
口②③口 |⑥---|
21
口①口口 |①--②|
①口④④ |③-④-|
口口口口
口②③口

⑥⑥⑤⑤
口口口口
口⑤口口 |⑤---|
口口口口 |⑥---|
22
口⑥⑤口 |--①-|
②口口① |②-③-|
③口口口 |④---|
口④④口 |⑤-⑥-|
23
⑥⑦⑧口 |①--②|
口口②口 |③-④-|
④口⑤口 |⑤-⑥-|
①③口① |⑦-⑧-|
24
口⑤口① |①-②-|
⑤④⑥口 |③-④-|
⑧口口③ |⑤--⑥|
口⑦②口 |⑦-⑧-|
25
⑧⑧口口 |①--②|
⑤②⑤口 |③-④-|
⑥①①④ |⑤⑥⑦-|
⑦口③口 |⑧---|
26
口④口口 |--①-|
④③⑤口 |②-③-|
⑦口口② |④--⑤|
口⑥①口 |⑥-⑦-|
27
口口①口 |①--②|
口②口① |③-④-|
口口口④
口口③口

⑥⑦⑧口
口口口口
口⑤口口 |⑤-⑥-|
口口口口 |⑦-⑧-|
28
口⑤口① |①-②-|
⑤④⑥口 |③-④-|
⑧口口③ |⑤--⑥|
口⑦②口 |⑦-⑧-|
29
②口①① |①-②-|
口③口口 |③-④-|
口口④口
口口口口

口口⑥口
口口口⑥
口口口⑤ |⑤---|
口口⑤口 |⑥---|
30
③③⑥⑥ |①-②-|
②①④⑤ |③---|
口口口口 |④-⑤-|
①②⑤④ |⑥---|
31
③③⑥⑥ |①-②-|
②①④⑤ |③---|
口口口口 |④-⑤-|
①②⑤④ |⑥---|
32
⑦⑧口口 |①-②-|
⑤⑥口口 |③-④-|
③④口口 |⑤-⑥-|
①②口口 |⑦-⑧-|
33
口口③③ |①-②-|
口口①② |③---|
口口口口
口口②①

口口口口
口口口口
⑦⑥⑤④ |④⑤⑥⑦|
⑪⑩⑨⑧ |⑧⑨⑩⑪|
34
口①①口 |①---|
口⑥③口 |--②-|
⑤口口② |③-④-|
口④口口 |⑤-⑥-|
35
③③②② |①-②③|
口口口口 |--④-|
口①①口
口④口口

口口口口
口⑦⑤口
⑦⑧⑧⑤ |⑤-⑥-|
口口⑥口 |⑦-⑧-|
36
③③②② |①-②③|
①⑦⑤① |--④-|
口⑧⑥④ |⑤-⑥-|
口⑦⑤口 |⑦-⑧-|
37
口③口口 |①---|
①口③① |②-③-|
口口口②
①口②①

⑤口④⑥
口口口⑥
④口口口 |--④-|
⑥⑥口⑤ |⑤-⑥-|
38
口②④口 |----|
②口口④ |--①-|
⑤③①⑤ |②-③-|
口口口口 |④-⑤-|
39
口口口③ |①---|
口口③口 |②-③-|
口口口口
口①①②

⑤⑦口口
⑦⑤口口
口口口口 |④-⑤-|
④⑥口口 |⑥-⑦-|
40
口口②④ |①-②-|
口口④② |③-④-|
口口口口
口口①③

口⑤口口
⑤⑦口口
口口⑦⑥ |--⑤-|
口口⑥口 |⑥-⑦-|
41
④口口口 |①-②-|
口口③口 |③-④-|
①③口口
②①口④

口口⑥⑤
口⑦口⑥
⑧口口口 |⑤-⑥-|
口⑧口口 |⑦-⑧-|
42
④口口⑤ |①②③-|
口⑨⑥口 |④-⑤-|
⑧②①⑤ |⑥-⑦-|
口⑦③口 |⑧-⑨-|
43
③③②② |①-②③|
口口口口 |--④-|
口①①口
口④口口

口口口口
口⑦⑤口
⑦⑧⑧⑤ |⑤-⑥-|
口口⑥口 |⑦-⑧-|
44
③③②② |①-②③|
①⑦⑤① |--④-|
口⑧⑥④ |⑤-⑥-|
口⑦⑤口 |⑦-⑧-|
45
口③口口 |①---|
①口③① |②-③-|
口口口②
①口②①

⑤口④⑥
口口口⑥
④口口口 |--④-|
⑥⑥口⑤ |⑤-⑥-|
46
口②④口 |----|
②口口④ |--①-|
⑤③①⑤ |②-③-|
口口口口 |④-⑤-|
47
口口口③ |①---|
口口③口 |②-③-|
口口口口
口①①②

⑤⑦口口
⑦⑤口口
口口口口 |④-⑤-|
④⑥口口 |⑥-⑦-|
48
口口②④ |①-②-|
⑦口④② |③-④-|
⑥⑥口口 |--⑤-|
⑤口①③ |⑥-⑦-|
49
①①①口 |①---|
口口口口 |----|
口口口口 |----|
口口口口 |----|
50
①①①② |①---|
①口口② |②---|
①①口②
①②②②

口⑥⑤口
口④③口
口口③口 |③-④⑤|
口口口口 |⑥---|
51
③口口⑥ |①--②|
口口口口 |③-④-|
口②④口 |⑤---|
⑤①①口 |⑥---|
52
③口口⑧ |①--②|
口口口⑦ |③-④-|
口②④⑥ |⑤-⑥-|
⑤①①口 |⑦-⑧-|
53
③口口⑥ |①--②|
口口口口 |③-④-|
口②④口 |⑤---|
⑤①①口 |⑥---|
54
④口②⑨ |①-②③|
口口口⑧ |④-⑤-|
口③⑤⑦ |⑥-⑦-|
⑥①①口 |⑧-⑨-|
55
③口口⑥ |①--②|
口口口口 |③-④-|
口②④口 |⑤---|
⑤①①口 |⑥---|
56
③口口⑧ |①--②|
口口口⑦ |③-④-|
口②④⑥ |⑤-⑥-|
⑤①①口 |⑦-⑧-|
57
③口口⑥ |①--②|
口口口口 |③-④-|
口②④口 |⑤---|
⑤①①口 |⑥---|
58
④口②口 |①-②③|
口⑥⑥⑥ |④-⑤-|
口③⑤口 |⑥---|
⑥①①口 |----|
59
口①①口 |①---|
口③口口 |②-③-|
口口②口 |----|
口口口口 |----|
60
口④②口 |①-②-|
③⑤口口 |--③-|
口口⑥口 |--④-|
口①口口 |⑤-⑥-|
61
⑤④⑥口 |①---|
口⑦③口 |--②③|
口②⑧口 |④-⑤-|
口⑨①口 |⑥⑦⑧⑨|
62
⑨口⑩② |①---|
③口口⑧ |②③④⑤|
⑦口口④ |⑥⑦⑧⑨|
⑤口①⑥ |⑩---|
63
⑪④口⑤ |①②③④|
⑥⑫③口 |⑤⑥⑦⑧|
口②⑩⑦ |⑨-⑩-|
⑧口①⑨ |⑪-⑫-|
64
口口④口 |①-②-|
⑤口③⑦ |③-④-|
口②口⑥ |⑤-⑥-|
⑧①口口 |⑦-⑧-|
65
①口口口 |①-②③|
口②⑦口 |④⑤⑥⑦|
口⑥③口
口④⑤口

⑩⑧口⑨
口口口口
口口口口 |⑧-⑨-|
口口口口 |⑩---|
66
口④④④ |--①②|
口口口① |③-④-|
口口③口
口口②口

⑧口口口
⑤口⑧⑧
口⑧口⑥ |--⑤⑥|
⑦口⑧⑧ |⑦-⑧-|
67
口口口② |①---|
口①⑥口 |②-③-|
⑤口③⑦ |④-⑤-|
口④口口 |⑥-⑦-|
68
①口⑤⑤ |--①-|
④②③⑤ |②---|
口③②口 |③-④-|
⑤口④① |⑤---|

不確定度: 0

最終更新:2017年08月03日 01:07