Boss Rush
USAO

ADVANCED

Level: 7
BPM: 190
Notes: 608

1
口口口口 |----|
口口口口 |----|
口口口口 |----|
口口口口 |----|
2
口口口口 |①---|
①口口① |----|
口⑤④口 |②-③-|
口③②口 |④-⑤-|
3
②口⑤① |--①-|
口④口口 |--②-|
口口③口 |--③-|
口口口口 |④-⑤-|
4
口口口口 |①-②-|
①⑥⑤口 |③---|
口④④② |④---|
③口口口 |⑤-⑥-|
5
⑤口口⑤ |①-②-|
口口口① |③---|
②④④口 |④---|
口口口③ |⑤---|
6
口⑤口口 |①---|
①口④① |----|
口③口口 |②-③-|
口口②口 |④-⑤-|
7
②口⑤① |--①-|
口④口口 |--②-|
口口③口 |--③-|
口口口口 |④-⑤-|
8
口口口口 |①-②-|
①⑥⑤口 |③---|
口④④② |④---|
③口口口 |⑤-⑥-|
9
⑤口口⑤ |①-②-|
口口口① |③---|
②④④口 |④---|
口口口③ |⑤---|
10
口口口口 |①---|
①①①① |----|
口⑤④口 |②-③-|
口③②口 |④-⑤-|
11
②口⑤① |--①-|
口④口口 |--②-|
口口③口 |--③-|
口口口口 |④-⑤-|
12
口口口口 |①-②-|
①⑥⑤口 |③---|
口④④② |④---|
③口口口 |⑤-⑥-|
13
⑤口口⑤ |①-②-|
口口口① |③---|
②④④口 |④---|
口口口③ |⑤---|
14
口⑤口口 |①---|
①口④① |----|
口③口口 |②-③-|
口口②口 |④-⑤-|
15
②口⑤① |--①-|
口④口口 |--②-|
口口③口 |--③-|
口口口口 |④-⑤-|
16
口口口口 |①-②-|
①⑥⑤口 |③---|
口④④② |④---|
③口口口 |⑤-⑥-|
17
⑤口口⑤ |①-②-|
口口口① |③---|
②④④口 |④---|
口口口③ |⑤---|
18
口口口口 |①---|
①①①① |--②-|
口②口口 |----|
口口③口 |③---|
19
口口口口 |①---|
口③口口 |--②-|
口口②口 |----|
口①口口 |③---|
20
口①①口 |①---|
口口②口 |--②-|
口③口口 |----|
口口口口 |③---|
21
口口口口 |①---|
口③③口 |--②-|
②口口② |----|
口①①口 |③---|
22
口口口① |①---|
口口口② |②---|
口口口③ |③---|
口口口④ |④---|
23
④口口口 |①---|
③口口口 |②---|
②口口口 |③---|
①口口口 |④---|
24
口②①口 |①-②-|
口④③口 |③-④-|
口⑥⑤口 |⑤-⑥-|
口⑧⑦口 |⑦-⑧-|
25
④口口④ |①---|
口③③口 |②-③-|
①口口① |--④-|
②口口② |----|
26
口口口口 |①---|
②口口① |②---|
口口口口
口口口口

口口口口
口口⑥⑥
⑤⑤口口 |③-④-|
③口④④ |⑤-⑥-|
27
①口口④ |①-②-|
③③口口 |③---|
口口②② |④---|
口口口口 |----|
28
口口口口 |①---|
②口口① |②---|
口口口口
口口口口

口口口口
口口⑥⑥
⑤⑤口口 |③-④-|
③口④④ |⑤-⑥-|
29
①口口④ |①-②-|
③③口口 |③---|
口口②② |④---|
口⑥⑤口 |⑤-⑥-|
30
口口口口 |①---|
②口口① |②---|
口口口口
口口口口

口口口口
口口⑥⑥
⑤⑤口口 |③-④-|
③口④④ |⑤-⑥-|
31
①口口④ |①-②-|
③③口口 |③---|
口口②② |④---|
口口口口 |----|
32
③口口口 |①---|
口②④① |②-③-|
口口⑤口 |--④-|
口口⑥口 |⑤-⑥-|
33
口⑥口口 |①-②-|
③口⑤口 |③---|
口④口② |④-⑤-|
①口口口 |⑥---|
34
口口口口 |①---|
②口口① |②---|
口口口口
口口口口

口口口口
口口⑥⑥
⑤⑤口口 |③-④-|
③口④④ |⑤-⑥-|
35
①口口④ |①-②-|
③③口口 |③---|
口口②② |④---|
口口口口 |----|
36
口口口口 |①---|
②口口① |②---|
口口口口
口口口口

口口口口
口口⑥⑥
⑤⑤口口 |③-④-|
③口④④ |⑤-⑥-|
37
①口口④ |①-②-|
③③口口 |③---|
口口②② |④---|
口口口口 |----|
38
③口口口 |①---|
口②④① |②-③-|
口口⑤口 |--④-|
口口⑥口 |⑤-⑥-|
39
口④④口 |①-②-|
口③口口 |③---|
口口口② |④---|
口①口口 |----|
40
口口口口 |①-②-|
①⑥⑤口 |③---|
口④④② |④---|
③口口口 |⑤-⑥-|
41
⑤口口⑤ |①-②-|
口口口① |③---|
②④④口 |④---|
口口口③ |⑤---|
42
口口口口 |①---|
①①①① |----|
口⑤④口 |②-③-|
口③②口 |④-⑤-|
43
②口⑤① |--①-|
口④口口 |--②-|
口口③口 |--③-|
口口口口 |④-⑤-|
44
口口口口 |①-②-|
①⑥⑤口 |③---|
口④④② |④---|
③口口口 |⑤-⑥-|
45
⑤口口⑤ |①-②-|
口口口① |③---|
②④④口 |④---|
口口口③ |⑤---|
46
口⑤口口 |①---|
①口④① |----|
口③口口 |②-③-|
口口②口 |④-⑤-|
47
②口⑤① |--①-|
口④口口 |--②-|
口口③口 |--③-|
口口口口 |④-⑤-|
48
口口口口 |①-②-|
①⑥⑤口 |③---|
口④④② |④---|
③口口口 |⑤-⑥-|
49
口口口口 |①---|
②⑥⑤② |②---|
口④③口 |③-④-|
口①①口 |⑤-⑥-|
50
①②口① |①---|
口口口口 |②---|
④⑤口口 |③-④-|
口口③口 |--⑤-|
51
口口口口 |①---|
口口②① |②---|
口口口口 |③---|
口口③口 |----|
52
口①②口 |①---|
口口口口 |②---|
口口⑤④ |③-④-|
口③口口 |--⑤-|
53
口口口口 |①---|
①②口口 |②---|
口④④口 |③---|
口③口口 |④---|
54
口②①口 |①---|
口口口口 |②---|
④⑤口口 |③-④-|
口口③口 |--⑤-|
55
③口口③ |①---|
口口②① |②---|
口④④口 |③---|
口口口口 |④---|
56
口①②口 |①---|
口口口口 |②---|
口口⑤④ |③-④-|
口③口口 |--⑤-|
57
口口口口 |①---|
①②口口 |②---|
口口④口 |③---|
口③口口 |④---|
58
口口口口 |①---|
①口口① |--②-|
口②口口 |----|
口口③口 |③---|
59
口口口口 |①---|
口③口口 |--②-|
口口②口 |----|
口①口口 |③---|
60
口①①口 |①---|
口口②口 |--②-|
口③口口 |----|
口口口口 |③---|
61
④口口口 |①--②|
口⑤⑤③ |--③-|
②口口口 |-④--|
口口口① |⑤---|
62
口口口① |①---|
口口口② |②---|
口口口③ |③---|
口口口④ |④---|
63
④口口口 |①---|
③口口口 |②---|
②口口口 |③---|
①口口口 |④---|
64
口②①口 |①-②-|
口④③口 |③-④-|
口⑥⑤口 |⑤-⑥-|
口⑧⑦口 |⑦-⑧-|
65
口口口① |①-②-|
口⑤④② |③---|
口⑦⑥③ |④-⑤-|
口口口口 |⑥-⑦-|
66
⑥口口③ |①---|
⑤口口② |②-③-|
④口口口 |--④-|
①①①① |⑤-⑥-|
67
口口④口 |①-②-|
口口①④ |③---|
口②口口 |④---|
口口③口 |----|
68
③口口⑥ |①---|
②口口⑤ |②-③-|
口口口④ |--④-|
①口口① |⑤-⑥-|
69
口①⑧口 |①-②-|
口⑦②口 |③-④-|
口③⑥口 |⑤-⑥-|
口⑤④口 |⑦-⑧-|
70
⑥口口③ |①---|
⑤口口② |②-③-|
④口口口 |--④-|
①口口① |⑤-⑥-|
71
口口⑥口 |①-②-|
口⑤①口 |③---|
口②④口 |④-⑤-|
口口③口 |⑥---|
72
②口⑤② |①---|
口口④口 |②---|
口口③口 |③-④-|
①口口① |⑤---|
73
③④⑤③ |①---|
口口口口 |②---|
②⑤④① |③---|
口②①口 |④-⑤-|
74
⑥口口③ |①---|
⑤①①② |②-③-|
④口口口 |--④-|
口口口口 |⑤-⑥-|
75
口口④口 |①-②-|
口口①④ |③---|
口②口口 |④---|
口口③口 |----|
76
③口口⑥ |①---|
②口口⑤ |②-③-|
口口口④ |--④-|
①口口① |⑤-⑥-|
77
口①⑧口 |①-②-|
口⑦②口 |③-④-|
口③⑥口 |⑤-⑥-|
口⑤④口 |⑦-⑧-|
78
⑥口口③ |①---|
⑤口口② |②-③-|
④口口口 |--④-|
①口口① |⑤-⑥-|
79
口口⑥口 |①-②-|
口⑤①口 |③---|
口②④口 |④-⑤-|
口口③口 |⑥---|
80
口口口口 |①-②-|
①口口口 |③---|
口⑥⑤② |④---|
③④④口 |⑤-⑥-|
81
④②②⑤ |①-②-|
口③③口 |③---|
①口口① |④---|
口⑤④口 |⑤---|
82
口口口口 |①---|
①口口① |----|
口⑤④口 |②-③-|
口③②口 |④-⑤-|
83
②口⑤① |--①-|
口④口口 |--②-|
口口③口 |--③-|
口口口口 |④-⑤-|
84
口口口口 |①-②-|
①⑥⑤口 |③---|
口④④② |④---|
③口口口 |⑤-⑥-|
85
⑤口口⑤ |①-②-|
口口口① |③---|
②④④口 |④---|
口口口③ |⑤---|
86
口⑤口口 |①---|
①口④① |----|
口③口口 |②-③-|
口口②口 |④-⑤-|
87
②口⑤① |--①-|
口④口口 |--②-|
口口③口 |--③-|
口口口口 |④-⑤-|
88
口口口口 |①-②-|
①⑥⑤口 |③---|
口④④② |④---|
③口口口 |⑤-⑥-|
89
⑤口口④ |①-②-|
口口口① |③---|
②口口口 |④---|
口④⑤③ |⑤---|
90
口口②口 |①---|
①①①① |②---|
口口⑤④ |③-④-|
口③口口 |--⑤-|
91
口口口口 |①---|
①②口口 |②---|
口口口口 |③---|
口③口口 |----|
92
口②①口 |①---|
口口口口 |②---|
④⑤口口 |③-④-|
口口③口 |--⑤-|
93
口口口口 |①---|
口口②① |②---|
口④④口 |③---|
口口③口 |④---|
94
①④④① |①---|
口③②口 |②-③-|
口口口口 |----|
口口口口 |④---|
95
口口口口 |①---|
①④④① |②-③-|
口③②口 |----|
口口口口 |④---|
96
口口口口 |①---|
口④④口 |②-③-|
①口口① |----|
口③②口 |④---|
97
口⑦⑥口 |①--②|
①口口① |--③-|
⑤②②⑤ |-④--|
③④④③ |⑤-⑥⑦|

不確定度: 0

最終更新:2017年03月04日 23:49