Boss Rush
USAO

EXTREME

Level: 9
BPM: 190
Notes: 775

1
口口口口 |----|
口口口口 |----|
口口口口 |----|
口口口口 |----|
2
口①口⑤ |①---|
口④⑥口 |②---|
③口②口 |③-④-|
口口口口 |⑤-⑥-|
3
口口②口 |--①-|
口④口口 |--②-|
口口③口 |--③-|
①⑤口口 |④-⑤-|
4
口②口口 |①-②-|
①⑤⑥口 |③---|
口③口④ |④---|
口口口口 |⑤-⑥-|
5
口口②口 |①-②-|
口口口① |③---|
④口③口 |④---|
口⑤⑤口 |⑤---|
6
口①口⑥ |①---|
口④⑤口 |②---|
③口②口 |③-④-|
口口口口 |⑤-⑥-|
7
口①口口 |--①-|
口④口口 |--②-|
口口③口 |--③-|
口⑤②口 |④-⑤-|
8
口②口口 |①-②-|
①⑤⑥口 |③---|
口③口④ |④---|
口口口口 |⑤-⑥-|
9
⑤口②⑤ |①-②-|
口口口① |③---|
④口③口 |④---|
口口口口 |⑤---|
10
口①①⑤ |①---|
口④⑥口 |②---|
③口②口 |③-④-|
口口口口 |⑤-⑥-|
11
口口②口 |--①-|
口④口② |--②-|
口口③口 |--③-|
①①⑤口 |④-⑤-|
12
口②口口 |①-②-|
①⑤⑥口 |③---|
口③口④ |④---|
口口口口 |⑤-⑥-|
13
口口②口 |①-②-|
口口口① |③---|
④口③口 |④---|
口⑤⑤口 |⑤---|
14
口①口⑥ |①---|
口④⑤口 |②---|
③口②口 |③-④-|
口口口口 |⑤-⑥-|
15
口①口口 |--①-|
①④口口 |--②-|
口口③② |--③-|
口⑤②口 |④-⑤-|
16
口②口口 |①-②-|
①⑤⑥口 |③---|
口③口④ |④---|
口口口口 |⑤-⑥-|
17
⑤口②⑤ |①-②-|
口口口① |③---|
④口③口 |④---|
口口口口 |⑤---|
18
③②口口 |①---|
口①①口 |--②-|
口口口口 |----|
口口口口 |③---|
19
口口口口 |①---|
口①②③ |--②-|
口口口口 |----|
口口口口 |③---|
20
口口口口 |①---|
③②口口 |--②-|
口①①口 |----|
口口口口 |③---|
21
口⑦口口 |①---|
④口⑥② |②-③-|
⑤⑤③③ |--④-|
口①①口 |⑤-⑥⑦|
22
口口口① |①---|
口口口② |②---|
口口口③ |③---|
口口口④ |④---|
23
④口口口 |①---|
③口口口 |②---|
②口口口 |③---|
①口口口 |④---|
24
⑫②④⑪ |①-②-|
⑩口口⑨ |③-④-|
⑧③①⑦ |⑤⑥⑦⑧|
⑥口口⑤ |⑨⑩⑪⑫|
25
⑧③③⑦ |①---|
口①①口 |②-③-|
口⑥⑤④ |④⑤⑥-|
口②②口 |⑦-⑧-|
26
口⑥⑤④ |①---|
①③口口 |②---|
口⑥⑤④ |③-④-|
口口②口 |⑤-⑥-|
27
口口⑦⑤ |①-②-|
①口③② |③-④-|
④口口口 |⑤---|
口⑥③② |⑥-⑦-|
28
口⑥⑤④ |①---|
①③口口 |②---|
口⑥⑤④ |③-④-|
口口②口 |⑤-⑥-|
29
口⑥⑦⑤ |①-②-|
①口③② |③-④-|
④⑦⑥口 |⑤---|
口口③② |⑥-⑦-|
30
口⑥⑤④ |①---|
①③口口 |②---|
口⑥⑤④ |③-④-|
口口②口 |⑤-⑥-|
31
口口口⑤ |①-②-|
①口③② |③-④-|
④口⑥⑥ |⑤---|
口口③② |⑥---|
32
口⑤⑥⑦ |①---|
①④口③ |②-③-|
口口口口 |④-⑤-|
口口②口 |⑥-⑦-|
33
口口⑦⑦ |①-②-|
①口①⑥ |③-④-|
④口②⑤ |⑤-⑥-|
口口③口 |⑦---|
34
②⑥⑤④ |①---|
①③口口 |②---|
口⑥⑤④ |③-④-|
⑤口②口 |⑤-⑥-|
35
③口⑦⑤ |①-②-|
①口③② |③-④-|
④口口口 |⑤---|
⑥⑥③② |⑥-⑦-|
36
②⑥⑤④ |①---|
①③口口 |②---|
口⑥⑤④ |③-④-|
⑤口②口 |⑤-⑥-|
37
③口⑦⑤ |①-②-|
①口③② |③-④-|
④口口口 |⑤---|
口⑥③② |⑥-⑦-|
38
②口口口 |①---|
①⑥口③ |②-③-|
口口①② |--④-|
⑤口④口 |⑤-⑥-|
39
③口⑤⑤ |①-②-|
①口口③ |③-④-|
④口②口 |⑤---|
⑥口口① |⑥---|
40
口②口口 |①-②-|
①⑤⑥口 |③---|
口③口④ |④---|
口口口口 |⑤-⑥-|
41
口口②口 |①-②-|
口口口① |③---|
④口③口 |④---|
口⑤⑤口 |⑤---|
42
⑤①①⑤ |①---|
口④⑥③ |--②-|
③口口② |③-④-|
口口口口 |⑤-⑥-|
43
口口②口 |--①-|
口⑤口口 |--②-|
口口④② |③-④-|
①⑥③① |⑤-⑥-|
44
⑥②口口 |①-②-|
①⑥⑦① |③-④-|
口③口⑤ |⑤---|
口口④⑤ |⑥-⑦-|
45
口口②① |①-②-|
口⑥⑥① |③-④-|
⑤口③口 |⑤---|
⑤④口口 |⑥---|
46
⑤①①⑥ |①---|
口④⑤③ |--②-|
③口口② |③-④-|
口口口口 |⑤-⑥-|
47
口①口口 |--①-|
口⑤口口 |--②-|
口口④③ |③-④-|
口⑥②② |⑤-⑥-|
48
⑥②口口 |①-②-|
①⑥⑦① |③-④-|
口③口⑤ |⑤---|
口口④⑤ |⑥-⑦-|
49
口④④① |①-②-|
②⑩⑨① |③-④-|
⑥③口⑤ |⑤⑥⑦⑧|
⑫⑧⑦⑪ |⑨⑩⑪⑫|
50
①④口① |①---|
口口口口 |②---|
口②⑤口 |③-④-|
口口③口 |--⑤-|
51
口口口口 |①-②-|
口①②③ |③---|
口⑤⑤口 |④---|
口④口口 |--⑤-|
52
口②⑥④ |①-②-|
①口③口 |③-④-|
口口⑦口 |⑤-⑥-|
口⑤口口 |--⑦-|
53
⑥口口口 |①-②-|
口①②③ |③---|
口口⑤口 |④---|
口④口口 |⑤-⑥-|
54
口②⑥④ |①-②-|
①口③口 |③-④-|
口口口口 |⑤-⑥-|
口⑤口⑦ |--⑦-|
55
⑤①口口 |①---|
口①口③ |②---|
口④②③ |③---|
口口②口 |④-⑤-|
56
口②⑥④ |①-②-|
①口③口 |③-④-|
口口⑦口 |⑤-⑥-|
口⑤口口 |--⑦-|
57
口口⑤口 |①-②-|
口①②③ |③---|
口⑥口口 |④---|
口④口口 |⑤-⑥-|
58
③②口口 |①---|
口①①口 |--②-|
口口口口 |----|
口口口口 |③---|
59
口口口口 |①---|
口①②③ |--②-|
口口口口 |----|
口口口口 |③---|
60
口口口口 |①---|
③②口口 |--②-|
口①①口 |----|
口口口口 |③---|
61
⑤⑦口口 |①--②|
⑤口⑥口 |--③-|
④③②① |-④--|
④③②① |⑤-⑥⑦|
62
口口口① |①---|
口口口② |②---|
口口口③ |③---|
口口口④ |④---|
63
④口口口 |①---|
③口口口 |②---|
②口口口 |③---|
①口口口 |④---|
64
⑫②④⑪ |①-②-|
⑩口口⑨ |③-④-|
⑧③①⑦ |⑤⑥⑦⑧|
⑥口口⑤ |⑨⑩⑪⑫|
65
口②⑥口 |①-②-|
口⑦⑥口 |③④⑤-|
⑧⑨①口 |⑥-⑦-|
⑧③④⑤ |⑧-⑨-|
66
口①口③ |①---|
⑤⑥口④ |②-③-|
口口⑤② |--④-|
口④②口 |⑤-⑥-|
67
口①⑤口 |①-②-|
⑦口②⑤ |③-④-|
①④口③ |⑤-⑥-|
口⑥③口 |⑦---|
68
口口口③ |①---|
⑤⑥①④ |②-③-|
①口⑤② |--④-|
口④②口 |⑤-⑥-|
69
口①⑦口 |①-②-|
⑦口②⑤ |③-④-|
①⑧⑥③ |⑤-⑥-|
口⑥③④ |⑦-⑧-|
70
口口④③ |①---|
⑤口①口 |②-③-|
①⑤⑥② |--④-|
口④②口 |⑤-⑥-|
71
口③口⑥ |①-②-|
⑥①②⑤ |③---|
①口⑦④ |④-⑤-|
口⑤③口 |⑥-⑦-|
72
口②①⑤ |①---|
⑤口④口 |②---|
①口口③ |③-④-|
口④②口 |⑤---|
73
口口口口 |①---|
口口口口 |②---|
①①口口
口口②②

口⑥⑦口
口③④⑤
口⑦⑥口 |③④⑤-|
口口口口 |⑥-⑦-|
74
②口口③ |①---|
⑤⑥口④ |②-③-|
①口⑤② |--④-|
⑤④②口 |⑤-⑥-|
75
③①⑤口 |①-②-|
⑦口②⑤ |③-④-|
①④口③ |⑤-⑥-|
⑦⑥③口 |⑦---|
76
②①口③ |①---|
⑤⑥口④ |②-③-|
①口⑤② |--④-|
⑤④②口 |⑤-⑥-|
77
③①⑦口 |①-②-|
⑦口②⑤ |③-④-|
①⑧⑥③ |⑤-⑥-|
⑦⑥③④ |⑦-⑧-|
78
口口④③ |①---|
⑤口①口 |②-③-|
①⑤⑥② |--④-|
口④②口 |⑤-⑥-|
79
口③口⑥ |①-②-|
⑥①②⑤ |③---|
①口⑦④ |④-⑤-|
口⑤③口 |⑥-⑦-|
80
口②口口 |①-②-|
口⑥④口 |③---|
①③口口 |④---|
口口⑤口 |⑤-⑥-|
81
⑤①口② |①--②|
①口⑥④ |--③-|
口⑦③⑤ |-④--|
②④⑤③ |⑤-⑥⑦|
82
口①①⑤ |①---|
口④⑥⑤ |②---|
③口②口 |③-④-|
口口口口 |⑤-⑥-|
83
口口②口 |--①-|
口④④口 |--②-|
口口③口 |--③-|
①⑤口口 |④-⑤-|
84
⑤②口口 |①-②-|
①⑤⑥① |③---|
口③口④ |④---|
口口口③ |⑤-⑥-|
85
口口②① |①-②-|
口口口① |③---|
④③③口 |④---|
口⑤⑤口 |⑤---|
86
①①口⑥ |①---|
②④⑤⑤ |②---|
③口②口 |③-④-|
口口口口 |⑤-⑥-|
87
口①口口 |--①-|
口④④口 |--②-|
口口③口 |--③-|
口⑤②口 |④-⑤-|
88
⑤②口口 |①-②-|
①⑤⑥① |③---|
口③口④ |④---|
口口口③ |⑤-⑥-|
89
⑤口②④ |①-②-|
口口口① |③---|
口口③口 |④---|
口④⑤口 |⑤---|
90
口口⑥口 |①-②-|
①口③口 |③-④-|
口②⑦④ |⑤-⑥-|
口⑤口口 |--⑦-|
91
口口口口 |①-②-|
口①②③ |③---|
口口⑤口 |④---|
口④口口 |--⑤-|
92
口②⑥④ |①-②-|
①口③口 |③-④-|
口口⑦口 |⑤-⑥-|
口⑤口口 |--⑦-|
93
口⑥口口 |①-②-|
口①②③ |③---|
口口⑤口 |④---|
口④口口 |⑤-⑥-|
94
②口④⑤ |①---|
②③口⑤ |②-③-|
口①口口 |--④-|
口⑥口口 |⑤-⑥-|
95
②口④⑤ |①---|
②③口⑤ |②-③-|
口口口口 |--④-|
口⑥①口 |⑤-⑥-|
96
口口口口 |①---|
②口口⑦ |②-③-|
②③④⑤ |④-⑤-|
⑥⑥①口 |⑥-⑦-|
97
③②①⑯ |①②③④|
⑥⑤④⑮ |⑤⑥⑦⑧|
⑨⑧⑦⑭ |⑨⑩⑪⑫|
⑫⑪⑩⑬ |⑬⑭⑮⑯|

不確定度: 0

最終更新:2017年03月04日 23:48